<?xml version="1.0" standalone="no"?>
<!DOCTYPE svg PUBLIC "-//W3C//DTD SVG 1.1//EN" "http://www.w3.org/Graphics/SVG/1.1/DTD/svg11.dtd" >
<!--
2013-9-30: Created.
-->
<svg>
<metadata>
Created by iconfont
</metadata>
<defs>

<font id="iconfont" horiz-adv-x="1024" >
  <font-face
    font-family="iconfont"
    font-weight="500"
    font-stretch="normal"
    units-per-em="1024"
    ascent="896"
    descent="-128"
  />
    <missing-glyph />
    
    <glyph glyph-name="czIcon-Approval" unicode="&#58978;" d="M760.832 444.928c-53.76 0-97.28-43.52-97.28-97.28 0-33.792 19.456-68.096 48.64-82.944 14.848-9.728 29.184-14.336 48.64-14.336s33.792 5.12 48.64 14.336c29.184 14.848 48.64 48.64 48.64 82.944 0 53.76-44.032 97.28-97.28 97.28z m24.064-140.8c-9.728-5.12-14.848-9.728-29.184-9.728-9.728 0-19.456 4.608-29.184 9.728-14.848 9.728-19.456 24.064-19.456 38.912 0 24.576 24.576 48.64 48.64 48.64 29.184 0 48.64-24.576 48.64-48.64 5.12-14.848-4.608-29.184-19.456-38.912zM420.352-26.624000000000024h-243.2c-68.096 0-121.344 53.248-121.344 121.344V727.04c0 68.096 53.248 121.344 121.344 121.344h535.04c68.096 0 121.344-53.248 121.344-121.344v-145.92c0-14.848-9.728-24.064-24.576-24.064s-24.064 9.728-24.064 24.064v145.92c0 38.912-34.304 72.704-73.216 72.704h-535.04c-38.912 0-73.216-33.792-73.216-72.704v-632.32c0-38.912 33.792-72.704 73.216-72.704h243.2c14.336 0 24.576-9.728 24.576-24.064 0-14.848-9.728-24.576-24.064-24.576zM614.912 605.696h-340.48c-14.336 0-24.576 9.728-24.576 24.064 0 14.848 9.728 24.064 24.576 24.064h340.48c14.336 0 24.064-9.728 24.064-24.064 0-14.336-9.728-24.064-24.064-24.064z m0-145.92h-340.48c-14.336 0-24.576 9.728-24.576 24.064 0 14.848 9.728 24.576 24.576 24.576h340.48c14.336 0 24.064-9.728 24.064-24.576 0-14.336-9.728-24.064-24.064-24.064z m189.44-184.832l-19.456 29.184c-9.728-5.12-14.848-9.728-29.184-9.728-9.728 0-19.456 4.608-29.184 9.728l-14.848-29.184-116.736-208.896h335.36l-125.952 208.896z m-43.52-24.576l97.28-179.712h-189.44l92.16 179.712zM930.816 22.015999999999963v-48.64h-340.48v48.64h340.48z m0 48.64h-340.48c-29.184 0-48.64-19.456-48.64-48.64v-48.64c0-29.184 19.456-48.64 48.64-48.64h340.48c29.184 0 48.64 19.456 48.64 48.64v48.64c0 24.064-24.064 48.64-48.64 48.64"  horiz-adv-x="1024" />

    
    <glyph glyph-name="czIcon-phone" unicode="&#58977;" d="M259.072-60.928c-73.728-3.584-158.208 78.848-179.712 136.192-13.824 36.352 0.512 53.76 8.704 59.904 56.832 52.224 157.696 124.416 198.144 134.656l3.072 0.512 3.072-0.512c23.04-2.048 37.888-16.896 51.2-29.696 16.896-16.896 28.16-26.112 50.688-22.016 6.656 1.536 35.84 14.336 123.904 129.024l37.376 49.664c87.552 118.784 92.16 150.016 91.136 156.672-2.56 22.528-14.848 29.696-36.864 40.448-16.384 8.192-35.328 17.408-44.032 38.4l-1.024 2.56v3.072c-1.536 40.448 38.4 156.16 72.192 223.232 3.584 9.728 14.336 26.112 46.592 27.648 65.024 3.072 181.76-55.808 197.632-131.584 22.528-107.008-43.52-276.992-176.64-453.632l-49.152-65.024c-133.12-176.64-279.04-288.768-390.656-300.032l-5.632 0.512z m-154.112 294.912c-15.872 45.056-25.088 94.208-25.088 144.896 0 238.592 193.536 431.616 431.616 431.616 11.776 0 23.552-0.512 35.328-1.536l48.128 62.976c-27.648 4.608-55.808 7.168-83.456 7.168-275.968 0-500.224-223.744-500.224-500.224 0-74.24 15.872-144.384 45.056-207.36 0.512 0 48.64 62.464 48.64 62.464zM895.488 578.048c31.232-59.392 48.64-126.976 48.64-199.168 0-238.592-193.536-431.616-431.616-431.616-32.256 0-63.488 3.584-93.696 10.24l-45.568-58.88c44.032-12.8 91.136-19.456 139.264-19.456C788.48-120.832 1012.736 102.912 1012.736 379.392c0 94.208-26.112 182.784-71.68 258.048 0-0.512-45.568-59.392-45.568-59.392z"  horiz-adv-x="1024" />

    
    <glyph glyph-name="czIcon-close" unicode="&#58976;" d="M722.432 585.216c10.752-11.264 10.752-29.184 0-40.448l-361.984-361.984c-11.264-10.752-29.184-10.752-40.448 0-10.752 11.264-10.752 29.184 0 40.448l361.984 361.984c11.264 10.752 29.184 10.752 40.448 0zM320.512 585.216c11.264 10.752 29.184 10.752 40.448 0l361.984-361.984c10.752-11.264 10.752-29.184 0-40.448-11.264-10.752-29.184-10.752-40.448 0l-361.984 361.984c-10.752 11.264-10.752 29.184 0 40.448z"  horiz-adv-x="1024" />

    
    <glyph glyph-name="czIcon-Switchaccount" unicode="&#58975;" d="M919.552 147.45600000000002h-332.288V194.048h275.456l-84.48 84.48 33.28 33.28 124.416-124.416c6.656-6.656 8.704-16.896 5.12-25.6s-11.776-14.336-21.504-14.336z m-206.848-207.872l-124.416 124.416c-6.656 6.656-8.704 16.896-5.12 25.6 3.584 8.704 12.288 14.336 21.504 14.336l332.288-0.512v-46.592l-275.456 0.512 84.48-84.48-33.28-33.28zM569.344 12.288000000000011h-347.136c-22.528 0-96.768 4.096-99.328 56.32-0.512 44.544 27.136 86.016 86.016 115.2 56.32 27.648 230.4 98.304 230.4 98.304 12.288 5.632 20.992 17.92 22.016 31.744 1.024 13.824-4.608 27.136-15.872 34.816-57.344 40.96-130.048 135.168-130.048 201.728v70.144c0 46.592 31.744 90.624 65.024 122.368 32.768 31.232 74.752 44.032 119.808 41.472 45.056 2.56 87.04-10.24 119.808-41.472 33.792-31.744 65.024-75.776 65.024-122.368v-70.144c0-66.56-72.704-160.768-130.048-201.728-11.264-8.192-16.896-20.992-15.872-34.816 1.024-13.824 9.728-26.112 22.016-31.744 0 0 35.328-14.336 78.848-32.256 14.848 9.216 31.232 17.408 48.64 24.576-55.296 23.04-105.984 43.52-105.984 43.52 66.048 50.688 148.48 155.648 148.48 232.448v70.144c0 125.952-114.176 209.408-231.936 210.944-117.76-1.024-231.936-84.992-231.936-210.944v-70.144c0-76.8 82.432-181.76 148.48-232.448 0 0-172.032-69.632-227.328-97.28-58.368-29.184-109.056-81.92-108.032-152.576 0.512-68.608 53.248-100.864 135.68-100.864h391.168c-14.336 13.824-27.648 29.184-37.888 45.056z"  horiz-adv-x="1024" />

    
    <glyph glyph-name="czIcon-Housekeeper" unicode="&#58974;" d="M192 519.6800000000001v-562.176c0-11.776 9.728-21.504 21.504-21.504h42.496v159.744c0 17.92 14.336 31.744 31.744 31.744s31.744-14.336 31.744-31.744v-159.744h159.744c17.92 0 31.744-14.336 31.744-31.744 0-17.92-14.336-31.744-31.744-31.744h-266.752c-47.104 0-85.504 38.4-85.504 85.504v498.176l-71.168-71.168c-12.288-12.288-32.768-12.288-45.056 0-12.288 12.288-12.288 32.768 0 45.056l439.296 439.296c33.28 33.28 87.552 33.28 120.832 0l438.272-438.272c12.288-12.288 12.288-32.768 0-45.056-12.288-12.288-32.768-12.288-45.056 0l-438.272 438.272c-8.192 8.192-22.016 8.192-30.208 0l-303.616-304.64zM770.048 160.25599999999997c-70.656 0-128 57.344-128 128s57.344 128 128 128 128-57.344 128-128-57.344-128-128-128z m0 64c35.328 0 64 28.672 64 64s-28.672 64-64 64-64-28.672-64-64 28.672-64 64-64z m132.096-147.456c-1.536 11.264-10.24 19.456-20.992 19.456-17.92 0-31.744 14.336-31.744 31.744 0 17.92 14.336 31.744 31.744 31.744 43.008 0 78.848-31.744 84.48-74.24l18.432-117.248c6.144-47.104-27.136-90.112-74.24-95.744-3.584-0.512-7.168-0.512-10.752-0.512h-263.168c-47.104 0-85.504 38.4-85.504 85.504 0 3.584 0 7.168 0.512 10.752l18.944 117.76c5.632 42.496 41.984 74.24 84.48 74.24 17.92 0 31.744-14.336 31.744-31.744 0-17.92-14.336-31.744-31.744-31.744-10.752 0-19.968-8.192-20.992-18.944l-18.944-117.76v-2.048c0-11.776 9.728-21.504 21.504-21.504h265.728c11.776 1.536 19.968 11.776 18.432 23.552l-17.92 116.736z"  horiz-adv-x="1024" />

    
    <glyph glyph-name="czIcon-Repair" unicode="&#58973;" d="M906.752 19.96799999999996c-0.512-14.336-12.288-26.112-26.624-26.112-14.336 0-26.112 11.776-26.624 26.112-0.512 9.728 4.608 18.432 12.8 23.552 8.192 5.12 18.944 5.12 27.136 0 8.704-4.608 13.824-13.824 13.312-23.552z m87.04-10.24c0-27.648-10.752-54.272-30.208-74.24-42.496-39.424-108.032-39.424-150.528 0l-353.792 344.064c-3.072 3.072-8.192 4.096-12.288 2.048h-3.072c-154.112-62.464-329.728 12.288-392.192 166.912-14.336 35.84-22.016 73.728-22.016 112.128 0 20.48 2.048 40.448 6.144 60.416l8.704 43.52 180.736-174.592c4.608-4.096 11.264-4.096 15.872 0l156.16 152.064c2.048 1.536 3.072 4.096 3.072 6.656-0.512 3.072-2.048 5.632-4.096 7.168l-188.928 183.296 39.936 11.264c159.744 47.104 327.168-44.544 373.76-203.776 19.456-66.56 15.36-137.728-11.264-201.728l-2.56-5.632c-1.024-3.584-0.512-7.168 2.048-9.728l354.304-346.112c19.456-19.968 30.208-46.592 30.208-73.728z m-48.128 0c0 14.848-6.144 29.184-16.384 39.936l-353.28 344.064c-17.408 16.896-22.016 42.496-12.8 64.512l2.56 5.632c53.76 129.536-8.192 278.528-138.24 331.776-30.72 12.8-63.488 18.944-96.768 19.456-9.216 0-18.944-0.512-28.16-2.048l125.952-122.88c11.264-10.752 17.408-25.6 17.408-40.96s-6.144-30.208-17.408-41.472l-156.672-152.576c-23.04-21.504-58.88-21.504-82.432 0l-112.128 110.08v-3.072c-1.024-140.288 112.128-254.464 251.904-255.488 32.768 0 65.536 6.144 95.744 17.92h2.56c7.168 3.072 14.848 4.608 22.528 4.608 15.36 0 30.208-6.144 41.472-16.896l352.768-342.016c23.552-22.528 59.904-22.528 83.456 0 12.288 10.24 18.432 24.576 17.92 39.424z"  horiz-adv-x="1024" />

    
    <glyph glyph-name="czIcon-Customerservice" unicode="&#58959;" d="M887.808 466.944c-14.336 207.36-194.048 364.032-401.408 349.696-187.392-12.8-336.384-162.304-349.696-349.696-59.392-3.584-105.984-53.248-106.496-112.64v-70.144c0-62.976 51.2-113.664 113.664-113.664s113.664 51.2 113.664 113.664v70.144c0 45.568-27.136 87.04-69.12 104.96 7.68 178.688 158.72 316.928 336.896 309.248 167.424-7.168 302.08-141.312 309.248-309.248-41.984-17.92-69.12-59.392-69.12-104.96v-70.144c0-26.624 9.728-52.736 27.136-72.704-46.592-81.92-126.976-139.776-219.648-158.208-17.92 34.304-60.416 47.104-94.208 29.184-34.304-17.92-47.104-60.416-29.184-94.208 17.92-34.304 60.416-47.104 94.208-29.184 16.896 8.704 29.184 24.064 34.304 41.984 107.52 19.456 201.216 84.48 257.024 178.176 57.856-24.576 124.928 2.56 148.992 60.416 6.144 13.824 8.704 29.184 9.216 44.032v70.656c0 59.392-46.08 108.544-105.472 112.64z m-682.496-112.64v-70.144c0-33.792-27.648-61.44-61.44-61.44s-61.44 27.648-61.44 61.44v70.144c0 33.792 27.648 61.44 61.44 61.44s61.44-27.648 61.44-61.44z m735.744-70.144c0-33.28-27.136-60.416-60.416-60.416-7.68 0-14.848 1.536-21.504 4.096-4.096 1.536-8.704 3.584-12.288 6.144-4.096 2.56-7.168 5.632-10.752 9.216-1.024 1.024-1.536 2.048-2.56 3.072-2.048 2.56-4.096 5.12-5.632 8.192-1.024 1.024-1.536 2.56-2.048 4.096-4.096 8.192-6.144 16.896-6.144 26.112v69.632c0 16.384 6.144 31.744 17.92 43.008 3.072 3.072 6.656 6.144 10.24 8.192l3.584 2.048c2.56 1.536 5.632 3.072 8.192 4.096l4.608 1.536c2.56 1.024 5.12 1.536 8.192 2.048h14.336c31.744-2.56 55.808-28.672 55.808-60.416l-1.536-70.656z"  horiz-adv-x="1024" />

    
    <glyph glyph-name="czIcon-COFFEE_SHOP" unicode="&#58936;" d="M849.92 238.59199999999998c12.8 0 24.576 5.12 33.28 13.824s13.824 20.48 13.824 33.28v92.16c0 12.8-5.12 24.576-13.824 33.28-8.704 8.704-20.48 13.824-33.28 13.824h-31.744v13.312c0 11.776-9.728 21.504-21.504 21.504h-242.688c-11.776 0-21.504-9.728-21.504-21.504v-183.296c0-10.752 2.048-20.48 6.144-29.184h-50.176V629.248h112.64v-51.2c0-11.776 9.728-21.504 21.504-21.504h104.96c11.776 0 21.504 9.728 21.504 21.504v51.2h113.152c11.776 0 21.504 9.728 21.504 21.504v82.432c0 18.944-7.68 35.84-19.968 48.128-12.288 12.288-29.696 19.968-48.64 19.968l-620.032 0.512c-18.944 0-35.84-7.68-48.128-19.968-12.288-12.288-19.968-29.696-19.968-48.64l-0.512-667.136c0-18.944 7.68-35.84 19.968-48.128 12.288-12.288 29.696-19.968 48.128-19.968h18.432c-0.512-2.56-0.512-5.632-0.512-8.704 0-11.776 9.728-21.504 21.504-21.504s21.504 9.728 21.504 21.504c0 2.048 1.024 4.608 2.56 6.144 1.536 1.536 3.584 2.56 6.144 2.56 1.024 0 2.048 0 3.584 0.512H745.984c2.048 0 4.608-1.024 6.144-2.56 1.536-1.536 2.56-3.584 2.56-6.144 0-11.776 9.728-21.504 21.504-21.504s21.504 9.728 21.504 21.504c0 3.072 0 5.632-0.512 8.192h17.92c18.944 0 35.84 7.68 48.128 19.968 12.288 12.288 19.968 29.696 19.968 48.128v138.752c0 11.776-9.728 21.504-21.504 21.504h-50.176c2.048 4.096 3.072 8.192 4.608 12.8l33.792-0.512z m-31.744 142.848h31.744c1.024 0 2.048-0.512 2.56-1.024 0.512-0.512 1.024-1.536 1.024-2.56v-92.16c0-1.024-0.512-2.048-1.024-2.56-0.512-0.512-1.536-1.024-2.56-1.024h-31.744v99.328z m-242.688 35.328h199.168v-161.792c0-8.192-3.072-15.36-8.704-20.48s-12.8-8.704-20.48-8.704h-140.8c-8.192 0-15.36 3.072-20.48 8.704s-8.704 12.8-8.704 20.48v161.792z m130.56 182.784h-61.952V629.248h61.952v-29.696z m134.656-417.28v-117.248c0-6.656-3.072-13.312-7.68-17.92s-10.752-7.168-17.92-7.168H195.072c-6.656 0-13.312 3.072-17.92 7.68s-7.68 10.752-7.68 17.92l0.512 667.136c0 6.656 2.56 13.312 7.168 17.92 4.608 4.608 10.752 7.68 17.92 7.68l620.032-0.512c6.656 0 13.312-3.072 17.92-7.68s7.68-10.752 7.68-17.92v-60.928H467.456c-11.776 0-21.504-9.728-21.504-21.504l-0.512-445.44c0-11.776 9.728-21.504 21.504-21.504H748.544l92.16-0.512zM381.952 278.528c-18.944 18.944-45.056 30.72-74.24 30.72-29.184 0-55.296-11.776-74.24-30.72-18.944-18.944-30.72-45.056-30.72-74.24 0-28.16 11.264-53.76 29.696-72.704l1.024-1.536c18.944-18.944 45.056-30.72 74.24-30.72 28.672 0 55.296 11.776 74.24 30.72 18.944 18.944 30.72 45.056 30.72 74.24 0 28.672-11.776 55.296-30.72 74.24z m-30.208-118.272c-11.264-11.264-26.624-17.92-44.032-17.92-16.896 0-32.256 6.656-43.52 17.92l-1.024 1.024c-10.752 11.264-16.896 26.112-16.896 43.008 0 16.896 6.656 32.768 17.92 44.032s26.624 17.92 43.52 17.92 32.768-6.656 43.52-17.92c11.264-11.264 17.92-26.624 17.92-44.032 0.512-17.408-6.656-32.768-17.408-44.032z"  horiz-adv-x="1024" />

    
    <glyph glyph-name="czIcon-hook" unicode="&#58968;" d="M894.976 649.7280000000001c-10.24 13.312-28.672 15.872-42.496 6.656-13.824-9.728-17.408-27.648-8.704-41.984 99.84-142.848 96.256-333.824-8.192-473.6-104.448-139.776-286.208-196.608-452.096-141.824-165.376 54.784-276.992 209.408-276.992 384 1.024 178.688 118.272 336.384 289.28 388.096 10.752 3.072 18.944 11.776 21.504 22.528 2.56 10.752-0.512 22.016-8.704 29.696-8.192 7.68-19.456 10.24-30.208 7.168-230.4-68.608-371.2-301.056-325.12-537.088 46.08-236.032 263.68-398.336 503.296-375.296s421.888 224.256 422.4 464.896c0 95.232-29.696 188.928-83.968 266.752zM626.688 771.072c48.64-14.848 93.696-38.4 133.632-70.144 13.312-10.752 33.28-8.192 44.032 5.12s8.192 33.28-5.12 44.032c-46.08 36.864-99.328 64-155.648 80.896-16.384 5.12-33.792-4.608-38.912-20.992-5.12-16.384 4.608-33.792 20.992-38.912h1.024z m-137.216 25.6c3.072-2.56 6.656-5.12 10.24-6.656 7.68-3.072 16.384-3.072 23.552 0 3.584 1.536 7.168 3.584 10.24 6.656 5.632 5.632 9.216 13.824 9.216 22.016 0 8.192-3.072 16.384-9.216 22.016-7.168 7.68-17.92 11.264-28.16 9.216-2.048-0.512-4.096-1.024-5.632-2.048-2.048-0.512-4.096-1.536-5.632-2.56l-4.608-3.584c-2.56-3.072-5.12-6.656-6.656-10.24-1.536-4.096-2.56-8.192-2.56-12.288 0-4.096 1.024-8.192 2.56-11.776 1.536-4.096 3.584-7.68 6.656-10.752z m-252.416-370.688c-6.656-6.656-10.24-15.872-10.24-25.088 0-9.728 3.584-18.432 10.24-25.088l178.176-179.2c6.656-6.656 15.872-10.24 25.088-10.24 9.728 0 18.432 3.584 25.088 10.24l320 321.536c14.336 13.824 14.848 36.864 0.512 51.2-13.824 14.336-36.864 14.848-51.2 0.512l-294.912-294.912-152.576 151.552c-13.824 13.312-36.352 13.312-50.176-0.512z"  horiz-adv-x="1024" />

    
    <glyph glyph-name="czIcon-orientation" unicode="&#58967;" d="M870.4 804.864h-768v-819.2h819.2v819.2h-51.2z m0-768h-716.8v716.8h716.8v-716.8zM306.176 163.84000000000003c-6.656 0-13.312 2.56-17.92 7.68-7.68 7.68-9.728 19.968-4.608 29.696l138.752 273.408c2.56 4.608 6.656 8.704 11.264 11.264l272.896 138.24c9.728 5.12 22.016 3.072 29.696-4.608s9.728-19.968 4.608-29.696l-138.752-272.896c-2.56-4.608-6.144-8.704-11.264-11.264l-272.896-138.752c-4.096-2.048-7.68-3.072-11.776-3.072z m157.696 280.064l-99.328-196.096 195.584 99.328 99.328 195.584-195.584-98.816z"  horiz-adv-x="1024" />

    
    <glyph glyph-name="czIcon-area" unicode="&#58897;" d="M213.504 682.496h597.504v-51.2h-597.504zM85.504 810.496h320v-51.2h-320zM85.504 810.496h51.2v-320h-51.2zM618.496 810.496h320v-51.2h-320zM887.296 810.496h51.2v-320h-51.2zM618.496 8.70399999999995h320v-51.2h-320zM887.296 277.504h51.2v-320h-51.2zM85.504 8.70399999999995h320v-51.2h-320zM85.504 277.504h51.2v-320h-51.2zM213.504 136.70399999999995h597.504v-51.2h-597.504zM759.296 682.496h51.2v-597.504h-51.2zM213.504 682.496h51.2v-597.504h-51.2z"  horiz-adv-x="1024" />

    
    <glyph glyph-name="czIcon-apartment" unicode="&#58895;" d="M552.448 832.512h51.2v-896h-51.2zM27.648 832.512h51.2v-896h-51.2zM27.648 832.512h576v-51.2h-576zM27.648-12.288000000000011h958.976v-51.2h-958.976zM27.648 441.856h337.408v-51.2h-337.408zM428.032 441.856h238.592v-51.2h-238.592zM552.448 577.024h434.176v-51.2h-434.176zM934.912 577.024h51.2v-641.024h-51.2z"  horiz-adv-x="1024" />

    
    <glyph glyph-name="czIcon-sofa" unicode="&#58894;" d="M862.208 522.752h-39.936v181.248c0 22.016-17.92 39.936-39.936 39.936h-540.16c-22.016 0-39.936-17.92-39.936-39.936v-181.248h-39.936v181.248c0 44.032 35.84 79.872 79.872 79.872h540.16c44.032 0 79.872-35.84 79.872-79.872v-181.248zM882.176 83.96799999999996h-739.84c-44.032 0-79.872 35.84-79.872 79.872v299.52c0 44.032 35.84 79.872 79.872 79.872h0.512l49.664-0.512c44.032-0.512 79.36-36.352 79.36-79.872v-112.64c0-22.016 17.92-39.936 39.936-39.936h390.144c22.016 0 39.936 17.92 39.936 39.936v112.64c0 44.032 35.84 79.872 79.36 79.872l59.904 0.512h0.512c44.032 0 79.872-35.84 79.872-79.36v-300.032c0.512-44.032-35.328-79.872-79.36-79.872z m-740.352 419.84c-22.016 0-39.936-17.92-39.936-39.936v-299.52c0-22.016 17.92-39.936 39.936-39.936h739.84c22.016 0 39.936 17.92 39.936 39.936v300.032c0 22.016-17.92 39.936-39.936 39.936l-59.904-0.512c-22.016 0-39.936-17.92-39.936-39.936v-112.64c0-44.032-35.84-79.872-79.872-79.872h-390.144c-44.032 0-79.872 35.84-79.872 79.872v112.64c0 22.016-17.92 39.936-39.936 39.936h-50.176zM161.792 103.93600000000004h39.936V-15.871999999999957h-39.936v119.808z m659.968 0h39.936V-15.871999999999957h-39.936v119.808z m-309.76 293.376c-15.36 0-30.72 5.632-42.496 17.408l-70.656 70.656c-23.552 23.552-23.552 61.44 0 84.992l70.656 70.656c23.552 23.552 61.44 23.552 84.992 0l70.656-70.656c23.552-23.552 23.552-61.44 0-84.992l-70.656-70.656c-11.776-11.776-27.136-17.408-42.496-17.408z m0 221.184c-5.12 0-10.24-2.048-14.336-5.632l-70.656-70.656c-7.68-7.68-7.68-20.48 0-28.16l70.656-70.656c7.68-7.68 20.48-7.68 28.16 0l70.656 70.656c7.68 7.68 7.68 20.48 0 28.16l-70.656 70.656c-3.584 4.096-8.704 5.632-13.824 5.632z"  horiz-adv-x="1024" />

    
    <glyph glyph-name="czIcon-mattress" unicode="&#58893;" d="M811.52 111.10400000000004h-599.552c-62.464 0-156.672 0-156.672 85.504l53.76 544.768c0 67.584 70.144 124.928 156.672 124.928h492.032c86.528 0 156.672-57.344 156.672-127.488l53.76-539.648c0.512-88.064-94.208-88.064-156.672-88.064z m-545.28 701.44c-55.296 0-102.912-33.792-102.912-73.728L109.056 194.048c0-19.968 14.848-29.696 102.912-29.696h599.552c88.576 0 102.912 10.24 102.912 32.256l-53.76 539.648c0 42.496-47.616 76.288-102.912 76.288h-491.52zM869.888-97.79200000000003h-722.432c-49.152 0-89.088 34.816-89.088 76.288v200.704h53.76v-200.704c0-10.24 14.848-22.528 35.328-22.528h722.432c23.552 0 44.032 13.824 44.032 30.208v211.456h53.76v-211.456c1.024-46.592-43.52-83.968-97.792-83.968z"  horiz-adv-x="1024" />

    
    <glyph glyph-name="czIcon-search" unicode="&#58890;" d="M455.168-25.600000000000023c-250.368 0-455.168 204.8-455.168 460.8s204.8 460.8 455.168 460.8 455.168-204.8 455.168-460.8-199.168-460.8-455.168-460.8z m0 68.608c216.064 0 387.072 176.128 387.072 392.704s-170.496 392.704-387.072 392.704-387.072-176.128-387.072-392.704 176.64-392.704 387.072-392.704zM989.696-19.456000000000017l-170.496 164.864c-16.896 16.896-45.568 16.896-68.096 0-16.896-16.896-16.896-45.568 0-68.096L921.6-87.55200000000002c16.896-16.896 45.568-16.896 68.096 0 17.408 22.528 17.408 50.688 0 68.096z"  horiz-adv-x="1024" />

    
    <glyph glyph-name="czIcon-coordinate" unicode="&#58888;" d="M530.432-14.336000000000013c-36.352 0-329.216 233.984-329.216 445.952 0 186.368 146.432 339.968 329.216 339.968s329.216-153.6 329.216-339.968c0-215.552-292.864-445.952-329.216-445.952z m0 745.984c-160.768 0-292.352-135.168-292.352-303.616 0-186.368 248.832-384 292.352-406.016 44.032 22.016 292.352 219.648 292.352 406.016 0 168.448-131.584 303.616-292.352 303.616zM534.016 322.048c-69.632 0-128 58.368-128 128s58.368 128 128 128 128-58.368 128-128-58.368-128-128-128z m0 219.648c-51.2 0-91.648-40.448-91.648-91.648s40.448-91.648 91.648-91.648 91.648 40.448 91.648 91.648-44.032 91.648-91.648 91.648z"  horiz-adv-x="1024" />

    
    <glyph glyph-name="czIcon-error" unicode="&#58969;" d="M512 384m-512 0a512 512 0 1 1 1024 0 512 512 0 1 1-1024 0ZM470.4256 681.5744a51.2 51.2 0 0 0 51.2-51.2v-307.2a51.2 51.2 0 0 0-51.2-51.2 51.2 51.2 0 0 0-51.2 51.2v307.2a51.2 51.2 0 0 0 51.2 51.2z m0-512a51.2 51.2 0 1 0-51.2-51.2 51.2 51.2 0 0 0 51.2 51.2z"  horiz-adv-x="1024" />

    
    <glyph glyph-name="czIcon-add" unicode="&#58887;" d="M64 832.512v-896h896v896h-896z m849.92-849.92h-803.84v803.84h803.84v-803.84zM808.96 407.04h-273.92v273.92c0 12.8-10.24 23.04-23.04 23.04s-23.04-10.24-23.04-23.04v-273.92H215.04c-12.8 0-23.04-10.24-23.04-23.04s10.24-23.04 23.04-23.04h273.92v-273.92c0-12.8 10.24-23.04 23.04-23.04s23.04 10.24 23.04 23.04v273.92h273.92c12.8 0 23.04 10.24 23.04 23.04s-10.24 23.04-23.04 23.04z"  horiz-adv-x="1024" />

    
    <glyph glyph-name="czIcon-more" unicode="&#58886;" d="M128 377.34400000000005c0-35.328 28.672-64 64-64s64 28.672 64 64-28.672 64-64 64-64-28.672-64-64zM448 377.34400000000005c0-35.328 28.672-64 64-64s64 28.672 64 64-28.672 64-64 64-64-28.672-64-64zM768 377.34400000000005c0-35.328 28.672-64 64-64s64 28.672 64 64-28.672 64-64 64-64-28.672-64-64z"  horiz-adv-x="1024" />

    
    <glyph glyph-name="czIcon_reserve" unicode="&#58884;" d="M390.144 583.6800000000001c0 23.552-18.944 42.496-42.496 42.496-23.552 0-42.496-18.944-42.496-42.496 0-23.552 18.944-42.496 42.496-42.496 23.552-0.512 42.496 18.944 42.496 42.496m173.568 0c0 23.552-18.944 42.496-42.496 42.496-23.552 0-42.496-18.944-42.496-42.496 0-23.552 18.944-42.496 42.496-42.496 23.04-0.512 42.496 18.944 42.496 42.496m172.544 0c0 23.552-18.944 42.496-42.496 42.496-23.552 0-42.496-18.944-42.496-42.496 0-23.552 18.944-42.496 42.496-42.496 23.04-0.512 42.496 18.944 42.496 42.496M250.88 755.712c-30.72 0-55.296-25.088-55.296-55.296v-631.296c0-30.72 25.088-55.296 55.296-55.296h538.624c30.72 0 55.296 25.088 55.296 55.296V699.904c0 30.72-25.088 55.296-55.296 55.296H250.88z m538.624-784.896H250.88c-54.272 0-98.304 44.032-98.304 98.304V699.904c0 54.272 44.032 98.304 98.304 98.304h538.624c54.272 0 98.304-44.032 98.304-98.304v-631.296c-0.512-53.76-44.544-97.792-98.304-97.792zM693.248 351.744h-345.6c-11.776 0-21.504 9.728-21.504 21.504 0 11.776 9.728 21.504 21.504 21.504h345.6c11.776 0 21.504-9.728 21.504-21.504 0-11.776-9.728-21.504-21.504-21.504m0-208.384h-345.6c-11.776 0-21.504 9.728-21.504 21.504 0 11.776 9.728 21.504 21.504 21.504h345.6c11.776 0 21.504-9.728 21.504-21.504 0-11.776-9.728-21.504-21.504-21.504"  horiz-adv-x="1024" />

    
    <glyph glyph-name="czIcon_contract" unicode="&#58883;" d="M358.4 479.232h325.632v-51.2H358.4zM60.416 96.76800000000003h325.632v-51.2h-325.632zM197.632 250.36800000000005h51.2v-325.632h-51.2zM460.8 273.408h223.232v-51.2H460.8zM376.832 844.288h274.432v-102.4h-274.432zM460.8-24.576000000000022h502.784v-51.2H460.8zM758.784 836.608h204.8v-51.2h-204.8zM60.416 836.608h227.84v-51.2h-227.84zM912.384 836.608h51.2v-912.384h-51.2zM60.416 836.608h51.2v-506.88h-51.2z"  horiz-adv-x="1024" />

    
    <glyph glyph-name="czIcon_BrandHA" unicode="&#58898;" d="M414.418824 864.376471H126.192941A96.677647 96.677647 0 0 1 30.117647 768.3011759999999v-768.602352A96.677647 96.677647 0 0 1 126.192941-97.88235299999997h288.225883A96.677647 96.677647 0 0 1 512-0.30117600000005496V768.3011759999999a96.677647 96.677647 0 0 1-97.581176 96.075295z m48.188235-864.677647a48.188235 48.188235 0 0 0-48.188235-47.887059H126.192941a47.887059 47.887059 0 0 0-47.887059 47.887059V434.898824h384.301177z m0 481.882352H78.305882V768.3011759999999a47.887059 47.887059 0 0 0 47.887059 47.887059h288.225883a48.188235 48.188235 0 0 0 48.188235-47.887059zM369.543529 771.312941a24.094118 24.094118 0 0 1-24.094117-24.094117v-144.26353a23.792941 23.792941 0 0 1 24.094117-23.792941 23.792941 23.792941 0 0 1 23.792942 23.792941V747.218824a23.792941 23.792941 0 0 1-23.792942 24.094117zM369.543529 98.78588200000002a23.792941 23.792941 0 0 1 23.792942 24.094118v192.150588a23.792941 23.792941 0 0 1-23.792942 23.792941 23.792941 23.792941 0 0 1-24.094117-23.792941v-192.150588a24.094118 24.094118 0 0 1 24.094117-24.094118zM897.807059 387.011765h-240.941177a96.677647 96.677647 0 0 1-96.075294-96.075294v-144.26353a96.376471 96.376471 0 0 1 96.075294-95.774117H752.941176v-96.075295h-95.472941a24.094118 24.094118 0 0 1 0-48.188235h240.941177a24.094118 24.094118 0 0 1 0 48.188235h-96.677647v96.075295h96.075294A96.376471 96.376471 0 0 1 993.882353 146.67294100000004v144.26353a96.677647 96.677647 0 0 1-96.075294 96.075294z m47.887059-240.941177a47.887059 47.887059 0 0 0-47.887059-47.887059h-240.941177a47.887059 47.887059 0 0 0-47.887058 47.887059v144.865883a47.887059 47.887059 0 0 0 47.887058 47.887058h240.941177a47.887059 47.887059 0 0 0 47.887059-47.887058z"  horiz-adv-x="1024" />

    
    <glyph glyph-name="czIcon-aLongSubway" unicode="&#58899;" d="M843.294118 865.882353H180.705882a94.268235 94.268235 0 0 1-93.364706-94.870588v-602.352941A94.569412 94.569412 0 0 1 180.705882 74.69176500000003h43.369412l-91.858823-135.228236a23.792941 23.792941 0 0 1 6.023529-32.828235A26.202353 26.202353 0 0 1 150.588235-97.88235299999997a23.792941 23.792941 0 0 1 19.576471 10.24l109.929412 161.731765h463.510588l114.447059-162.032941a22.889412 22.889412 0 0 1 19.275294-9.938824 24.696471 24.696471 0 0 1 13.552941 4.216471 23.491765 23.491765 0 0 1 5.722353 32.828235l-95.171765 134.927059H843.294118a94.569412 94.569412 0 0 1 94.268235 94.569412v602.352941A94.268235 94.268235 0 0 1 843.294118 865.882353z m47.284706-696.018824A47.284706 47.284706 0 0 0 843.294118 121.97647099999995H180.705882a47.284706 47.284706 0 0 0-47.284706 47.284705v602.352942A47.284706 47.284706 0 0 0 180.705882 817.9952940000001h662.588236a47.284706 47.284706 0 0 0 47.284706-46.983529zM252.084706 333.40235299999995a65.054118 65.054118 0 1 1 64.752941-65.054118 65.054118 65.054118 0 0 1-64.752941 65.054118z m0-94.268235a30.117647 30.117647 0 1 0 30.117647 30.117647 30.117647 30.117647 0 0 0-30.117647-30.117647zM759.265882 333.40235299999995a65.054118 65.054118 0 1 1 65.054118-65.054118 65.054118 65.054118 0 0 1-65.054118 65.054118z m0-94.268235a30.117647 30.117647 0 1 0 30.117647 30.117647 30.117647 30.117647 0 0 0-30.117647-30.117647zM759.868235 758.964706H264.131765A70.776471 70.776471 0 0 1 193.355294 688.188235v-210.823529a71.077647 71.077647 0 0 1 70.776471-72.282353h495.73647a71.077647 71.077647 0 0 1 70.776471 69.270588V685.176471a70.776471 70.776471 0 0 1-70.776471 73.788235zM783.058824 474.352941a23.491765 23.491765 0 0 0-23.491765-23.491765H264.131765A23.491765 23.491765 0 0 0 240.941176 474.352941V685.176471a23.491765 23.491765 0 0 0 23.491765 23.792941h495.435294a23.491765 23.491765 0 0 0 23.190589-20.781177z"  horiz-adv-x="1024" />

    
    <glyph glyph-name="czIcon-southFaceUnit" unicode="&#58900;" d="M512 642.409412A262.324706 262.324706 0 0 1 247.265882 384 262.324706 262.324706 0 0 1 512 124.98823500000003a262.023529 262.023529 0 0 1 265.035294 259.011765A262.023529 262.023529 0 0 1 512 642.409412z m0-465.317647A210.823529 210.823529 0 0 0 299.369412 384 210.823529 210.823529 0 0 0 512 590.305882 210.823529 210.823529 0 0 0 724.931765 384 210.823529 210.823529 0 0 0 512 177.091765zM473.148235 852.931765m38.249412 0l1.204706 0q38.249412 0 38.249412-38.249412l0-88.545882q0-38.249412-38.249412-38.249412l-1.204706 0q-38.249412 0-38.249412 38.249412l0 88.545882q0 38.249412 38.249412 38.249412ZM236.423529 599.341176a39.755294 39.755294 0 0 1 55.115295 0 37.044706 37.044706 0 0 1 0 53.308236L226.484706 715.294118A39.454118 39.454118 0 0 1 171.670588 715.294118a36.743529 36.743529 0 0 1 0-53.308236zM199.68 384a37.948235 37.948235 0 0 1-37.948235 37.647059H68.065882a37.948235 37.948235 0 1 1 0-75.595294h93.665883A38.249412 38.249412 0 0 1 199.68 384zM235.218824 169.86352899999997l-64.752942-63.247058a36.743529 36.743529 0 0 1 0-53.308236 39.454118 39.454118 0 0 1 54.814118 0l65.054118 62.945883a37.345882 37.345882 0 0 1 0 53.609411 39.755294 39.755294 0 0 1-55.115294 0zM471.642353 80.41411800000003m38.249412 0l1.204706 0q38.249412 0 38.249411-38.249412l0-88.545882q0-38.249412-38.249411-38.249412l-1.204706 0q-38.249412 0-38.249412 38.249412l0 88.545882q0 38.249412 38.249412 38.249412ZM787.576471 599.341176l64.752941 63.247059a36.743529 36.743529 0 0 1 0 52.705883 39.454118 39.454118 0 0 1-54.814118 0l-65.054118-63.247059a37.044706 37.044706 0 0 1 0-53.308235 39.755294 39.755294 0 0 1 55.115295 0.602352zM955.934118 422.550588h-93.665883a37.948235 37.948235 0 1 1 0-75.595294h93.665883a37.948235 37.948235 0 1 1 0 75.595294zM788.781176 169.86352899999997a39.755294 39.755294 0 0 1-55.115294 0 37.345882 37.345882 0 0 1 0-53.609411L798.72 52.705881999999974a39.454118 39.454118 0 0 1 54.814118 0 36.743529 36.743529 0 0 1 0 53.308236z"  horiz-adv-x="1024" />

    
    <glyph glyph-name="czIcon-COLLECTION_COURIER" unicode="&#58901;" d="M989.364706 220.46117600000002l-64.150588 174.682353a75.595294 75.595294 0 0 1-21.684706 31.924706l-160.527059 154.50353a92.16 92.16 0 0 1-62.343529 26.202353h-148.781177V738.183529H30.117647v-539.708235a63.247059 63.247059 0 0 1 64.150588-64.150588h14.155294a120.470588 120.470588 0 0 1 237.327059 0h340.329412a120.470588 120.470588 0 0 1 237.628235 0h7.529412a57.524706 57.524706 0 0 1 50.296471 28.009412 60.235294 60.235294 0 0 1 7.830588 58.127058zM678.550588 567.7176469999999a56.018824 56.018824 0 0 0 34.032941-14.155294l162.334118-156.611765 2.108235-1.807059c3.915294-2.108235 6.023529-6.023529 9.938824-14.155294l6.023529-15.962353h-361.411764V567.7176469999999z m-186.729412 130.409412v-112.64h-2.108235v-220.461177H70.475294V698.127059zM227.087059 69.87294099999997a80.414118 80.414118 0 1 0 80.112941 80.414118 80.715294 80.715294 0 0 0-80.112941-80.414118z m577.65647 0a80.414118 80.414118 0 1 0 80.414118 80.414118 80.414118 80.414118 0 0 0-80.414118-80.414118z m144.564706 114.447059a20.48 20.48 0 0 0-18.070588-9.938824h-8.432941a120.470588 120.470588 0 0 1-235.821177 0H344.847059a120.470588 120.470588 0 0 1-235.821177 0h-14.45647a23.190588 23.190588 0 0 0-24.094118 24.094118V323.76470600000005h837.270588l43.670589-118.362353a21.985882 21.985882 0 0 0-2.108236-21.082353z"  horiz-adv-x="1024" />

    
    <glyph glyph-name="czIcon-ExCustService" unicode="&#58902;" d="M887.567059 466.522353a376.470588 376.470588 0 0 1-751.134118 0A113.543529 113.543529 0 0 1 30.117647 353.88235299999997v-70.174118a113.844706 113.844706 0 0 1 227.689412 0V353.88235299999997a113.844706 113.844706 0 0 1-68.969412 104.809412 323.463529 323.463529 0 0 0 646.324706 0A113.844706 113.844706 0 0 1 766.192941 353.88235299999997v-70.174118a112.037647 112.037647 0 0 1 27.105883-72.884706A325.270588 325.270588 0 0 0 573.741176 52.705881999999974a69.872941 69.872941 0 1 1 5.12-52.404706 376.470588 376.470588 0 0 1 256.90353 177.995295A113.844706 113.844706 0 0 1 993.882353 283.10588199999995V353.88235299999997a113.543529 113.543529 0 0 1-106.315294 112.64zM205.402353 353.88235299999997v-70.174118a60.235294 60.235294 0 0 0-122.578824 0V353.88235299999997a60.235294 60.235294 0 1 0 122.578824 0z m735.774118-70.174118a60.235294 60.235294 0 0 0-60.235295-60.235294 56.922353 56.922353 0 0 0-21.684705 4.216471 60.235294 60.235294 0 0 0-12.348236 6.023529 60.235294 60.235294 0 0 0-10.541176 9.035294 30.117647 30.117647 0 0 0-2.409412 3.312941 39.454118 39.454118 0 0 0-5.722353 8.131765 16.263529 16.263529 0 0 0-2.108235 3.915294 58.127059 58.127059 0 0 0-6.324706 26.202353V353.88235299999997a60.235294 60.235294 0 0 0 17.769412 43.068235 54.512941 54.512941 0 0 0 10.24 8.432941l3.614117 1.807059a43.068235 43.068235 0 0 0 8.432942 3.915294l4.517647 1.505883a39.454118 39.454118 0 0 0 8.131764 1.807059h14.155294a60.235294 60.235294 0 0 0 55.717647-60.235295z"  horiz-adv-x="1024" />

    
    <glyph glyph-name="czIcon-SMART_DOOR_LOCK" unicode="&#58903;" d="M835.463529 237.62823500000002h-140.950588V731.858824c0 86.437647-47.585882 134.023529-133.722353 134.023529H286.117647C199.68 865.882353 152.094118 818.296471 152.094118 731.858824v-695.717648C152.094118-50.296471 199.68-97.88235299999997 286.117647-97.88235299999997h274.672941c86.136471 0 133.722353 47.585882 133.722353 134.023529V164.14117599999997h140.950588A32.225882 32.225882 0 0 1 873.411765 200.88470600000005a32.225882 32.225882 0 0 1-37.948236 36.743529z m-189.138823 0h-85.534118a32.527059 32.527059 0 0 1-32.828235-17.769411 116.254118 116.254118 0 1 1 0-37.948236 32.527059 32.527059 0 0 1 32.828235-17.769412h85.534118v-128c0-60.235294-25.6-85.835294-85.534118-85.835294H286.117647c-60.235294 0-85.835294 25.6-85.835294 85.835294V731.858824c0 60.235294 25.6 85.835294 85.835294 85.835294h274.672941c60.235294 0 85.534118-25.6 85.534118-85.835294zM481.882353 200.88470600000005a67.463529 67.463529 0 1 0-67.463529 67.463529 66.56 66.56 0 0 0 33.731764-9.035294A67.764706 67.764706 0 0 0 481.882353 200.88470600000005zM487.303529 719.510588h-146.371764A71.981176 71.981176 0 0 1 262.023529 640.3011759999999v-109.929411a71.68 71.68 0 0 1 78.908236-78.908236h146.371764a71.981176 71.981176 0 0 1 79.209412 78.908236V640.3011759999999a72.282353 72.282353 0 0 1-79.209412 79.209412z m30.117647-189.138823c0-23.190588-7.529412-30.117647-30.117647-30.117647h-146.371764c-23.190588 0-30.117647 7.529412-30.117647 30.117647V640.3011759999999c0 23.491765 7.529412 30.117647 30.117647 30.117648h146.371764c23.491765 0 30.117647-7.529412 30.117647-30.117648z"  horiz-adv-x="1024" />

    
    <glyph glyph-name="czIcon-Anytime" unicode="&#58904;" d="M692.705882 296.056471a17.468235 17.468235 0 0 1-17.468235-17.769412V143.05882399999996a17.167059 17.167059 0 0 1 9.637647-15.661177l134.324706-67.162353a18.974118 18.974118 0 0 1 7.830588-2.108235 17.468235 17.468235 0 0 1 15.962353 9.938823 17.167059 17.167059 0 0 1-7.830588 23.491765l-124.687059 62.343529v123.482353a17.468235 17.468235 0 0 1-17.769412 17.769412zM432.489412 249.675294l26.202353 12.348235a273.468235 273.468235 0 1 1 108.724706 143.36l-13.251765-9.637647a19.275294 19.275294 0 0 1 23.190588-30.117647l11.444706 8.131765a235.821176 235.821176 0 1 0-105.110588-196.367059 228.592941 228.592941 0 0 0 12.047059 74.089412v1.807059l14.757647-30.117647a18.672941 18.672941 0 0 1 17.167058-11.14353 20.178824 20.178824 0 0 1 8.432942 1.807059 19.576471 19.576471 0 0 1 9.035294 25.901177L512 308.705882a20.48 20.48 0 0 1-10.842353 9.938824 18.070588 18.070588 0 0 1-14.757647 0l-70.475294-33.129412a19.275294 19.275294 0 0 1-9.336471-25.6 18.974118 18.974118 0 0 1 25.6-9.33647zM222.569412-92.76235299999996A72.282353 72.282353 0 0 0 150.588235-20.480000000000018V479.171765l-84.630588-84.630589a21.082353 21.082353 0 0 0-14.757647-6.023529 21.684706 21.684706 0 0 0-15.058824 6.023529 21.383529 21.383529 0 0 0 0 30.117648l421.647059 420.141176a71.981176 71.981176 0 0 0 101.797647 0l417.731765-419.538824a21.985882 21.985882 0 0 0 6.324706-15.058823 21.383529 21.383529 0 0 0-6.324706-14.757647 20.48 20.48 0 0 0-30.117647 0L528.564706 814.682353a30.117647 30.117647 0 0 1-42.465882 0l-293.647059-293.647059v-542.117647a30.117647 30.117647 0 0 1 30.117647-30.117647h50.29647V112.94117600000004a21.082353 21.082353 0 1 0 42.164706 0v-162.635294h162.635294a21.082353 21.082353 0 0 0 0-42.164706z"  horiz-adv-x="1024" />

    
    <glyph glyph-name="czIcon-WIFI" unicode="&#58905;" d="M986.051765 536.696471a34.635294 34.635294 0 0 0-47.284706-3.312942A671.623529 671.623529 0 0 1 85.232941 534.5882349999999l-1.807059-1.505882a34.032941 34.032941 0 0 0-46.983529 6.625882 34.635294 34.635294 0 0 0 6.625882 46.98353A743.905882 743.905882 0 0 0 512 753.543529a735.171765 735.171765 0 0 0 468.931765-168.05647h1.807059a34.635294 34.635294 0 0 0 3.312941-48.790588z m-139.444706-103.905883a517.421176 517.421176 0 0 1-334.607059 120.470588 542.117647 542.117647 0 0 1-336.112941-117.458823 33.430588 33.430588 0 1 1 42.164706-52.103529 470.437647 470.437647 0 0 0 588.197647-1.807059 33.430588 33.430588 0 0 1 41.863529 52.103529z m-132.818824-150.588235a337.016471 337.016471 0 0 1-201.788235 68.367059 331.294118 331.294118 0 0 1-201.487059-67.46353 33.430588 33.430588 0 1 1 40.357647-53.609411 269.552941 269.552941 0 0 0 322.56 0 33.430588 33.430588 0 0 1 41.86353 52.103529 1.505882 1.505882 0 0 0-1.505883 1.807059zM512 148.78117599999996A67.162353 67.162353 0 1 1 579.162353 82.82352900000001 67.162353 67.162353 0 0 1 512 148.78117599999996z"  horiz-adv-x="1024" />

    
    <glyph glyph-name="czIcon-refinedDecoration" unicode="&#58906;" d="M839.378824 818.597647H184.621176a88.244706 88.244706 0 0 1-84.931764-84.931765v-654.757647A85.534118 85.534118 0 0 1 184.621176-7.529411999999979h489.110589a24.395294 24.395294 0 0 1 0 48.489412H184.621176a36.442353 36.442353 0 0 0-36.442352 36.442353V733.665882a36.442353 36.442353 0 0 0 36.442352 36.442353h654.757648a36.442353 36.442353 0 0 0 36.442352-36.442353v-40.357647a24.395294 24.395294 0 1 1 48.489412 0V733.665882a85.534118 85.534118 0 0 1-84.931764 84.931765zM896 515.312941a50.597647 50.597647 0 0 1 12.047059 64.752941l-72.58353 109.025883a43.068235 43.068235 0 0 1-36.442353 20.178823 77.101176 77.101176 0 0 1-40.357647-12.047059l-12.348235-8.131764-15.962353 24.395294a56.621176 56.621176 0 0 1-44.574117 24.094117 90.352941 90.352941 0 0 1-32.225883-8.131764L245.157647 454.776471a62.042353 62.042353 0 0 1-24.094118-32.527059 49.091765 49.091765 0 0 1 8.131765-40.357647l56.621177-80.715294a49.995294 49.995294 0 0 1 44.272941-24.395295 77.402353 77.402353 0 0 1 28.310588 8.131765l412.310588 274.974118a52.705882 52.705882 0 0 1 16.26353 72.583529l-12.348236 16.26353 12.348236 8.131764a14.757647 14.757647 0 0 0 12.047058 3.915294l68.668236-105.110588a3.915294 3.915294 0 0 0-3.915294-3.915294l-194.258824-169.863529c-36.141176-32.225882-48.489412-80.715294-24.094118-112.941177L685.778824 203.29411800000003h-3.915295a35.84 35.84 0 0 1-19.275294-31.62353 40.96 40.96 0 0 1 7.830589-36.141176l109.327058-165.948236a35.84 35.84 0 0 1 32.225883-20.178823h8.131764a77.402353 77.402353 0 0 1 28.310589 8.131765l44.272941 28.310588a47.284706 47.284706 0 0 1 10.842353 68.668235l-109.327059 165.948235a35.538824 35.538824 0 0 1-32.225882 20.178824 41.863529 41.863529 0 0 1-36.442353-8.131765l-40.357647 64.451765a42.164706 42.164706 0 0 0 16.263529 48.790588z m-153.6 90.352941L331.294118 323.76470600000005h-3.915294L271.058824 406.287059V414.117647l410.804705 274.974118h3.915295l56.621176-80.715294z m16.263529-416.225882L867.689412 22.588235000000054l-44.574118-30.117647-109.025882 165.647059z"  horiz-adv-x="1024" />

    
    <glyph glyph-name="czIcon-GreenRateH" unicode="&#58907;" d="M833.355294 159.02117599999997H993.882353l-123.181177 273.167059h60.235295L801.129412 689.091765l-128.602353-256.90353h64.451765l-123.181177-273.167059h176.489412v-208.715294H340.630588v176.790589h256.90353l-192.752942 369.242353h85.835295L308.404706 865.882353l-180.705882-369.543529H210.823529L30.117647 127.09647099999995h256.903529v-176.790589H30.117647V-97.88235299999997h963.764706v48.188235h-160.527059z m-722.823529 16.26353l180.705882 369.242353h-84.329412l101.496471 209.01647 101.797647-209.01647h-85.534118l180.705883-369.242353zM801.129412 576.752941l48.188235-96.37647H752.941176z m-112.338824-369.543529l112.338824 224.978823 112.338823-224.978823z m0 0"  horiz-adv-x="1024" />

    
    <glyph glyph-name="czIcon-BIG_BED" unicode="&#58908;" d="M993.882353 575.548235l-6.023529 6.02353a704.451765 704.451765 0 0 1-475.858824 180.705882 696.922353 696.922353 0 0 1-475.557647-180.705882l-6.023529-6.02353v-427.369411h86.437647v-76.197648h70.174117v-66.258823h40.056471v66.258823h569.825882v-66.258823h40.056471v66.258823h70.174117v76.197648H993.882353zM867.087059 112.94117600000004H156.912941v193.957648h710.174118V112.94117600000004z m-421.647059 236.724706H199.077647V384a70.174118 70.174118 0 0 0 68.065882 69.270588h110.531765A67.764706 67.764706 0 0 0 445.741176 384z m379.181176 0H578.258824V384a70.174118 70.174118 0 0 0 68.065882 68.367059h110.531765A70.174118 70.174118 0 0 0 824.922353 384z m128.602353-160.225882h-46.08v159.322353h-42.164705V384a110.230588 110.230588 0 0 1-108.122353 108.423529h-110.531765a107.821176 107.821176 0 0 1-108.122353-108.423529v-36.141176h-52.404706V384a107.821176 107.821176 0 0 1-108.122353 108.423529H267.143529A110.230588 110.230588 0 0 1 159.021176 384v-36.141176h-42.164705v-160.225883H70.475294V559.5858820000001A657.769412 657.769412 0 0 0 512 724.028235a657.167059 657.167059 0 0 0 441.524706-164.442353z"  horiz-adv-x="1024" />

    
    <glyph glyph-name="czIcon-RoomCleaning" unicode="&#58909;" d="M400.865882 44.87529400000005h37.044706v-87.04h-37.044706zM252.385882 44.87529400000005h37.044706v-87.04H252.385882zM641.807059 260.517647V847.209412a18.672941 18.672941 0 0 1-18.672941 18.672941h-222.268236a18.672941 18.672941 0 0 1-18.672941-18.672941V260.517647a352.376471 352.376471 0 0 1-259.312941-339.727059V-97.88235299999997h778.24v18.672941a352.376471 352.376471 0 0 1-259.312941 339.727059zM419.237647 828.8376470000001h185.524706v-555.971765h-185.524706zM160.527059-60.83764699999995a315.030588 315.030588 0 0 0 314.428235 296.658823h74.089412a315.030588 315.030588 0 0 0 314.428235-296.658823zM734.268235 44.87529400000005h37.044706v-87.04h-37.044706zM586.089412 44.87529400000005h37.044706v-87.04h-37.044706z"  horiz-adv-x="1024" />

    
    <glyph glyph-name="czIcon-LuggageCheckIn" unicode="&#58910;" d="M514.108235 661.082353a102.098824 102.098824 0 1 1-102.098823 101.797647 102.098824 102.098824 0 0 1 102.098823-101.797647z m0 163.84A62.042353 62.042353 0 1 0 451.764706 762.88a62.343529 62.343529 0 0 0 62.343529 62.042353zM843.294118 277.082353h-24.094118v38.851765h2.108235a60.235294 60.235294 0 0 1 28.009412 43.971764 55.115294 55.115294 0 0 1-16.263529 45.778824l-171.971765 180.705882a46.983529 46.983529 0 0 1-15.962353 18.070588l-3.915294 3.915295a70.776471 70.776471 0 0 1-46.08 21.985882 115.049412 115.049412 0 0 1-25.901177 2.108235h-109.327058a100.291765 100.291765 0 0 1-25.901177-2.108235 77.402353 77.402353 0 0 1-46.08-21.985882 72.282353 72.282353 0 0 1-19.877647-21.985883l-171.971765-180.705882a56.018824 56.018824 0 0 1 9.938824-87.04v-42.767059H180.705882a49.091765 49.091765 0 0 1-47.887058-49.995294v-271.058824A49.091765 49.091765 0 0 1 180.705882-94.870588h87.341177a47.585882 47.585882 0 0 1 43.971765 30.117647h6.023529v292.141176A49.091765 49.091765 0 0 1 271.058824 277.082353h-24.094118v30.117647a41.562353 41.562353 0 0 1 6.023529 0 77.703529 77.703529 0 0 1 53.910589 21.985882l47.887058 49.995294v-412.310588a67.764706 67.764706 0 0 1 71.981177-60.235294 67.764706 67.764706 0 0 1 72.282353 60.235294v248.169412h33.731764v-249.976471A67.764706 67.764706 0 0 1 603.858824-97.88235299999997a67.764706 67.764706 0 0 1 72.282352 62.042353V377.072941L722.823529 327.07764699999996a76.197647 76.197647 0 0 1 53.910589-21.985882v-28.009412H752.941176a49.091765 49.091765 0 0 1-47.887058-49.995294v-271.058824A49.091765 49.091765 0 0 1 752.941176-94.870588h90.352942a49.091765 49.091765 0 0 1 47.887058 49.995294v271.058823A49.091765 49.091765 0 0 1 843.294118 277.082353zM277.985882 227.08705899999995v-252.084706h-2.108235v-19.877647c0-4.216471-3.915294-10.24-7.830588-10.24H180.705882c-3.915294 0-7.830588 6.023529-7.830588 10.24v271.058823c0 3.915294 3.915294 9.938824 7.830588 9.938824h90.352942c3.011765 0.903529 6.927059-5.12 6.927058-9.035294zM752.941176 356.89411800000005l-115.952941 120.470588v-512.301177c0-12.047059-14.155294-21.985882-32.225882-21.985882s-32.527059 12.047059-32.527059 21.985882v290.032942h-116.254118v-284.009412c0-12.047059-13.854118-21.985882-31.924705-21.985883S391.529412-37.64705900000001 391.529412-28.912941000000046v512l-115.651765-121.976471a37.345882 37.345882 0 0 0-25.901176-10.24 36.743529 36.743529 0 0 0-21.985883 6.02353c-8.131765 4.216471-12.047059 8.131765-12.047059 14.155294a18.371765 18.371765 0 0 0 6.02353 12.047059l174.08 180.705882 3.915294 3.915294a32.527059 32.527059 0 0 0 12.047059 12.047059l3.915294 3.915294a30.117647 30.117647 0 0 0 20.178823 8.131765h3.915295l3.915294 2.108235h124.084706a47.284706 47.284706 0 0 0 18.070588-2.108235h1.807059a38.851765 38.851765 0 0 0 24.094117-9.938824c2.108235 0 3.915294-2.108235 6.02353-4.21647a47.887059 47.887059 0 0 1 8.131764-9.938824l177.995294-186.729412a21.383529 21.383529 0 0 0 5.722353-13.854117 22.287059 22.287059 0 0 0-9.938823-14.155294 40.658824 40.658824 0 0 0-21.985882-6.02353 37.647059 37.647059 0 0 0-24.997648 9.938824z m97.882353-401.769412c0-4.216471-3.915294-10.24-7.830588-10.24H752.941176c-3.915294 0-7.830588 6.023529-7.830588 10.24v271.058823c0 3.915294 3.915294 9.938824 7.830588 9.938824h90.352942c3.915294 0 7.830588-6.023529 7.830588-9.938824z"  horiz-adv-x="1024" />

    
    <glyph glyph-name="czIcon-DESK" unicode="&#58911;" d="M968.884706 456.583529H261.12L221.364706 531.5764710000001a82.823529 82.823529 0 0 1 17.769412 90.352941L361.411765 690.296471v-74.089412a25.901176 25.901176 0 0 1 10.541176-20.781177 24.997647 24.997647 0 0 1 14.456471-4.517647 21.383529 21.383529 0 0 1 8.734117 1.505883l180.705883 67.463529a24.997647 24.997647 0 0 1 9.938823 40.357647l-102.4 113.242353a77.703529 77.703529 0 0 1-56.922353 28.310588 58.127059 58.127059 0 0 1-45.778823-21.684706 83.124706 83.124706 0 0 1-17.468235-51.2v-20.48l-156.611765-88.545882a83.425882 83.425882 0 1 1-45.176471-153.6 71.68 71.68 0 0 1 15.962353 0l26.804706-51.2H55.416471a24.997647 24.997647 0 0 1-17.468236-7.228235 24.997647 24.997647 0 0 1-7.529411-17.769412v-481.882353a24.997647 24.997647 0 0 1 24.997647-24.997647 25.298824 25.298824 0 0 1 25.298823 24.997647V263.529412h483.689412v-312.32a24.997647 24.997647 0 0 1 24.997647-24.997647h379.181176a24.997647 24.997647 0 0 1 24.997647 24.997647V431.284706a24.696471 24.696471 0 0 1-24.69647 25.298823zM413.515294 768c0 11.745882 4.216471 23.792941 12.649412 23.792941a30.117647 30.117647 0 0 0 19.877647-11.745882l77.402353-86.136471-112.338824-41.863529z m-252.084706-210.823529a33.430588 33.430588 0 1 0 33.430588 33.430588 33.430588 33.430588 0 0 0-33.430588-34.334118z m402.974118-242.748236H80.715294v92.16h483.689412z m50.29647 93.06353h328.884706v-93.06353H614.701176z m328.884706-431.284706H614.701176v113.242353h328.884706z m0 163.538823H614.701176V263.529412h328.884706zM737.581176 213.83529399999998h81.016471v-50.29647h-81.016471zM737.581176 380.38588200000004h81.016471v-50.29647h-81.016471zM737.581176 47.58588199999997h81.016471v-50.29647h-81.016471z"  horiz-adv-x="1024" />

    
    <glyph glyph-name="czIcon-WASHIN_MACHINE" unicode="&#58912;" d="M917.684706 865.882353H106.315294A74.992941 74.992941 0 0 1 30.117647 789.684706v-811.369412A74.992941 74.992941 0 0 1 106.315294-97.88235299999997h811.369412a74.992941 74.992941 0 0 1 75.294118 75.294118V789.684706A74.992941 74.992941 0 0 1 917.684706 865.882353zM106.315294 823.115294h811.369412a33.129412 33.129412 0 0 0 33.430588-33.430588V655.058824H72.884706V789.684706a33.129412 33.129412 0 0 0 33.430588 33.430588z m811.369412-878.230588H106.315294a33.129412 33.129412 0 0 0-33.430588 33.430588V614.0988239999999h878.230588v-635.78353a33.129412 33.129412 0 0 0-33.430588-33.430588zM512 551.152941a259.312941 259.312941 0 1 1 259.312941-259.011765 260.517647 260.517647 0 0 1-259.312941 259.011765z m0-476.461176a217.449412 217.449412 0 1 0 217.449412 217.449411A218.654118 218.654118 0 0 0 512 74.69176500000003zM512 450.861176v-41.863529a120.470588 120.470588 0 0 0 117.157647-116.856471h41.863529A161.430588 161.430588 0 0 1 512 450.861176zM158.72 768.602353h96.075294v-41.863529H158.72zM434.597647 768.602353h96.075294v-41.863529h-96.075294zM602.051765 768.602353h96.075294v-41.863529h-96.075294zM769.204706 768.602353h96.075294v-41.863529h-96.075294z"  horiz-adv-x="1024" />

    
    <glyph glyph-name="czIcon-PayoneByOne" unicode="&#58913;" d="M639.698824 738.183529A353.581176 353.581176 0 0 1 512 715.294118a354.183529 354.183529 0 1 1 0-662.588236 354.183529 354.183529 0 1 1 127.698824 685.477647z m-255.397648-662.588235A309.007059 309.007059 0 1 0 692.705882 384a309.609412 309.609412 0 0 0-308.404706-309.007059z m255.397648 0a296.96 296.96 0 0 0-69.571765 7.228235 352.978824 352.978824 0 0 1 0 602.352942 296.96 296.96 0 0 0 69.571765 8.131764 309.007059 309.007059 0 1 0 0-618.014117zM495.736471 374.362353a18.974118 18.974118 0 1 1 0 37.647059h-90.352942v9.637647l92.461177 92.461176a21.985882 21.985882 0 0 1 0 28.310589 21.684706 21.684706 0 0 1-28.611765 0l-85.232941-82.82353-84.931765 82.82353a21.684706 21.684706 0 0 1-28.611764 0 21.684706 21.684706 0 0 1 0-28.310589l92.461176-92.461176v-9.637647h-90.352941a18.974118 18.974118 0 1 1 0-37.647059h90.352941v-45.176471h-90.352941a18.974118 18.974118 0 1 1 0-37.948235h90.352941v-52.103529a18.974118 18.974118 0 1 1 37.948235 0v49.694117h90.352942a18.974118 18.974118 0 0 1 18.974117 18.974118 18.371765 18.371765 0 0 1-18.974117 18.974118h-90.352942v45.17647c2.409412 2.409412 94.870588 2.409412 94.870589 2.409412z"  horiz-adv-x="1024" />

    
    <glyph glyph-name="czIcon-LAMPBLACK_MACHINE" unicode="&#58914;" d="M466.221176 361.110588H512v-45.778823h-45.778824zM283.105882 361.110588h45.778824v-45.778823H283.105882zM672.225882 361.110588h45.778824v-45.778823h-45.778824zM282.202353 46.682353000000035a58.428235 58.428235 0 0 0-7.228235 4.517647A44.875294 44.875294 0 0 0 268.348235 112.94117600000004L301.176471 154.804706a22.889412 22.889412 0 1 1-35.538824 30.117647L232.508235 143.05882399999996a90.352941 90.352941 0 0 1 13.854118-127.698824 88.545882 88.545882 0 0 1 14.155294-9.336471A32.828235 32.828235 0 0 0 274.070588-37.64705900000001a33.430588 33.430588 0 0 0-7.529412-9.637647l-9.938823-8.432941a22.889412 22.889412 0 1 1 30.117647-34.936471l9.938824 8.432942a75.294118 75.294118 0 0 1 18.371764 22.889411 78.908235 78.908235 0 0 1-32.828235 106.014118zM512 46.682353000000035l-7.228235 4.517647a44.875294 44.875294 0 0 0-6.625883 63.247059l32.527059 40.357647a22.889412 22.889412 0 1 1-35.538823 30.117647L461.703529 143.05882399999996a90.352941 90.352941 0 0 1 13.552942-127.698824 104.207059 104.207059 0 0 1 14.155294-9.336471A32.828235 32.828235 0 0 0 502.964706-37.64705900000001a33.430588 33.430588 0 0 0-7.529412-9.637647l-9.938823-8.432941a22.889412 22.889412 0 1 1 30.117647-34.936471l10.24 8.432942a85.534118 85.534118 0 0 1 18.371764 22.889411A78.908235 78.908235 0 0 1 512 46.682353000000035zM739.990588 46.682353000000035a54.814118 54.814118 0 0 0-6.927059 4.517647 44.875294 44.875294 0 0 0-6.927058 63.247059l32.527058 40.357647a22.889412 22.889412 0 0 1-3.312941 32.225882 23.190588 23.190588 0 0 1-32.225882-3.312941L690.597647 143.05882399999996a90.352941 90.352941 0 0 1 13.552941-127.698824 104.207059 104.207059 0 0 1 14.155294-9.336471A32.828235 32.828235 0 0 0 731.858824-37.64705900000001a33.430588 33.430588 0 0 0-7.529412-9.637647l-9.938824-8.432941a23.190588 23.190588 0 0 1-2.710588-32.527059 23.491765 23.491765 0 0 1 32.527059-2.409412l8.734117 7.830589a79.811765 79.811765 0 0 1 18.371765 22.889411 78.908235 78.908235 0 0 1-31.322353 106.616471zM740.894118 544.225882V865.882353h-45.778824v-321.656471H328.884706V865.882353H283.105882v-321.656471L54.211765 269.55294100000003h915.57647zM304.489412 498.447059h415.021176L873.411765 315.331765H150.588235z"  horiz-adv-x="1024" />

    
    <glyph glyph-name="czIcon-goodScenery" unicode="&#58915;" d="M940.875294-5.421175999999946h-237.025882v128.602352A188.235294 188.235294 0 1 1 899.614118 444.235294 150.588235 150.588235 0 0 1 813.176471 662.889412a164.442353 164.442353 0 0 1-328.282353-12.950588 150.588235 150.588235 0 0 1-93.364706-246.964706 93.063529 93.063529 0 0 1-11.745883-9.938824l-6.023529-5.12a90.352941 90.352941 0 0 1-46.381176 34.032941 100.894118 100.894118 0 0 1-202.390589-7.830588 93.063529 93.063529 0 0 1-57.223529-150.588235 101.195294 101.195294 0 0 1 63.548235-180.705883 100.291765 100.291765 0 0 1 41.562353 9.035295V-7.529411999999979H48.790588v-14.757647h7.228236l16.865882-17.468235v-7.529412h135.830588v197.571765l-9.637647-3.011765h-4.517647a39.152941 39.152941 0 0 1-15.962353-6.023529l-3.011765-2.710589a70.475294 70.475294 0 0 0-44.272941-14.45647 60.235294 60.235294 0 0 0-64.451765 63.247059 72.583529 72.583529 0 0 0 31.924706 60.235294 42.164706 42.164706 0 0 1 10.842353 5.722353l7.830589 3.312941-4.517648 6.927059a99.087059 99.087059 0 0 1-10.842352 14.155294A60.235294 60.235294 0 0 0 83.727059 323.76470600000005a56.018824 56.018824 0 0 0 60.235294 57.223529h3.614118l12.047058 14.757647v3.011765a58.428235 58.428235 0 0 0 0 7.228235A65.656471 65.656471 0 0 0 226.183529 474.352941a60.235294 60.235294 0 0 0 65.656471-62.042353v-15.36h12.047059a62.042353 62.042353 0 0 0 51.802353-62.343529 64.150588 64.150588 0 0 0-8.432941-34.032941l-3.915295-6.927059-18.371764 6.625882 15.058823-19.877647c7.830588-9.938824 10.842353-12.047059 13.251765-12.649412a84.931765 84.931765 0 0 0 45.778824-76.498823 74.390588 74.390588 0 0 0-79.209412-78.305883 85.232941 85.232941 0 0 0-60.235294 25.6L257.505882 143.05882399999996a41.562353 41.562353 0 0 1-18.974117 8.131764l-11.444706 3.011765v-198.174118h377.072941v240.941177l-9.637647-3.011765a57.825882 57.825882 0 0 1-21.985882-11.143529l-5.421177-4.517647a125.289412 125.289412 0 0 0-124.687059-18.070589l-10.842353 7.529412a110.230588 110.230588 0 0 1 3.312942 26.50353 114.447059 114.447059 0 0 1-55.115295 98.484705 93.967059 93.967059 0 0 1 11.745883 40.96 78.305882 78.305882 0 0 1 0 12.047059l12.950588 13.251765a295.454118 295.454118 0 0 0 39.152941 26.202353l8.131765 4.818823s-12.649412 14.456471-21.082353 23.190589a132.818824 132.818824 0 0 0-35.237647 87.341176 111.134118 111.134118 0 0 0 110.832941 111.134118h3.614118l17.167059 21.684706v3.011764 12.348236a123.482353 123.482353 0 0 0 246.964705 0V628.2541180000001h15.36a110.531765 110.531765 0 0 0 93.364706-109.628236 112.338824 112.338824 0 0 0-16.865882-60.235294 128.301176 128.301176 0 0 0-6.625882-12.950588l-6.324706-11.143529c13.251765-16.865882 19.576471-21.383529 22.287059-21.684706a146.974118 146.974118 0 0 0 82.221176-132.818824 148.48 148.48 0 0 0-252.385882-105.712941l-4.216471 4.517647a51.501176 51.501176 0 0 1-24.395294 12.649412l-13.854118 3.915294v-240.941177h252.988236V-37.64705900000001l16.865882 17.468235h7.228235v7.228236z m-525.552941 133.12v-2.710589l8.432941-3.614117a166.550588 166.550588 0 0 1 140.649412 3.915294v-130.710588H262.023529v97.581176a113.242353 113.242353 0 0 1 57.825883-15.661176 114.447059 114.447059 0 0 1 95.472941 51.2z"  horiz-adv-x="1024" />

    
    <glyph glyph-name="czIcon-TV" unicode="&#58916;" d="M906.24 592.4141179999999h-481.882353l190.343529 247.868235L582.174118 865.882353l-180.705883-235.218824-102.098823 184.922353-37.044706-20.781176 113.242353-202.390588H117.76a82.522353 82.522353 0 0 1-80.715294-82.522353v-524.348236A82.522353 82.522353 0 0 1 117.76-97.88235299999997h788.48a82.522353 82.522353 0 0 1 80.715294 82.522353V509.891765a82.522353 82.522353 0 0 1-80.715294 82.522353z m39.454118-606.870589a41.261176 41.261176 0 0 0-39.454118-41.261176H117.76a41.261176 41.261176 0 0 0-39.454118 41.261176V509.891765a40.96 40.96 0 0 0 39.454118 41.261176h788.48a39.755294 39.755294 0 0 0 39.454118-41.261176zM786.672941 68.06588199999999h117.76v-41.261176h-117.76zM136.131765 6.324705999999992h594.823529v481.882353H136.131765zM177.694118 448.150588h512v-400.564706h-512zM846.305882 470.738824a80.715294 80.715294 0 0 1-80.414117-80.414118 80.715294 80.715294 0 1 1 161.129411 0 80.715294 80.715294 0 0 1-80.715294 80.414118z m0-120.470589a39.454118 39.454118 0 1 0 39.454118 39.454118 40.658824 40.658824 0 0 0-39.454118-38.851765zM786.672941 268.34823500000005h117.76v-41.261176h-117.76zM786.672941 167.15294100000006h117.76v-41.261176h-117.76z"  horiz-adv-x="1024" />

    
    <glyph glyph-name="czIcon-CABINET" unicode="&#58917;" d="M869.195294 865.882353H156.912941A126.192941 126.192941 0 0 1 30.117647 739.087059v-710.174118A126.192941 126.192941 0 0 1 156.912941-97.88235299999997h710.174118A126.795294 126.795294 0 0 1 993.882353 26.80470600000001V739.087059A126.795294 126.795294 0 0 1 869.195294 865.882353zM156.912941 825.524706h712.282353a86.738824 86.738824 0 0 0 84.329412-86.437647v-334.908235H70.475294V739.087059a88.545882 88.545882 0 0 0 86.437647 86.437647z m710.174118-883.049412H156.912941a88.545882 88.545882 0 0 0-86.437647 86.437647V363.82117600000004h883.049412v-337.01647a86.738824 86.738824 0 0 0-86.437647-84.329412zM194.861176 414.117647h84.329412a39.454118 39.454118 0 0 1 38.249412 37.948235v140.649412a76.8 76.8 0 0 1-62.343529 70.776471v120.470588H215.04v-120.470588a75.294118 75.294118 0 0 1-58.127059-72.282353v-138.541177A39.454118 39.454118 0 0 1 194.861176 414.117647z m2.108236 176.489412A32.527059 32.527059 0 0 0 231.002353 624.941176H240.941176a38.550588 38.550588 0 0 0 36.141177-34.032941v-136.432941H196.969412zM401.769412 414.117647h84.028235a39.454118 39.454118 0 0 1 38.249412 37.948235v138.541177a75.896471 75.896471 0 0 1-60.235294 72.884706v120.470588h-40.056471v-120.470588a75.896471 75.896471 0 0 1-60.235294-72.884706v-138.541177A39.454118 39.454118 0 0 1 401.769412 414.117647z m1.807059 176.489412A32.527059 32.527059 0 0 0 437.910588 624.941176h11.745883a32.527059 32.527059 0 0 0 34.334117-34.032941v-136.432941H403.576471zM608.376471 414.117647H692.705882a39.454118 39.454118 0 0 1 37.948236 37.948235v138.541177a75.896471 75.896471 0 0 1-60.235294 72.884706v120.470588h-40.056471v-120.470588a75.896471 75.896471 0 0 1-60.235294-72.884706v-138.541177A39.454118 39.454118 0 0 1 608.376471 414.117647z m1.807058 176.489412A32.527059 32.527059 0 0 0 644.517647 624.941176h12.047059a32.527059 32.527059 0 0 0 34.032941-34.032941v-136.432941h-80.414118zM233.110588 201.48705900000004v120.470588H193.054118v-120.470588a75.896471 75.896471 0 0 1-60.235294-72.884706v-138.541177a39.454118 39.454118 0 0 1 38.249411-37.948235h84.028236a39.454118 39.454118 0 0 1 38.249411 37.948235v141.251765a76.498824 76.498824 0 0 1-60.235294 70.174118zM253.289412-7.529411999999979H172.875294v136.734118a32.527059 32.527059 0 0 0 34.032941 34.032941h10.24a38.550588 38.550588 0 0 0 36.141177-34.032941zM431.887059 203.29411800000003v120.470588H391.529412v-120.470588a75.896471 75.896471 0 0 1-60.235294-72.884706v-138.541177a39.454118 39.454118 0 0 1 38.249411-37.948235h84.329412a39.454118 39.454118 0 0 1 37.948235 37.948235v138.541177A75.595294 75.595294 0 0 1 431.887059 203.29411800000003z m19.877647-210.82353h-80.112941v136.734118a32.527059 32.527059 0 0 0 34.032941 34.032941h12.047059A32.527059 32.527059 0 0 0 451.764706 129.204706zM632.470588 203.29411800000003v120.470588h-40.357647v-120.470588a75.896471 75.896471 0 0 1-60.235294-72.884706v-138.541177a39.454118 39.454118 0 0 1 37.948235-37.948235h84.329412A39.454118 39.454118 0 0 1 692.705882-9.33647099999996v138.541177A75.896471 75.896471 0 0 1 632.470588 203.29411800000003z m19.877647-210.82353H572.235294v136.734118a32.527059 32.527059 0 0 0 34.032941 34.032941h12.047059a34.936471 34.936471 0 0 0 34.032941-34.032941zM830.945882 203.29411800000003v120.470588h-40.05647v-120.470588a75.896471 75.896471 0 0 1-60.235294-72.884706v-138.541177a39.454118 39.454118 0 0 1 38.249411-37.948235h84.028236a39.454118 39.454118 0 0 1 38.249411 37.948235v138.541177a75.896471 75.896471 0 0 1-60.235294 72.884706z m20.178824-210.82353h-80.414118v136.734118a32.527059 32.527059 0 0 0 34.334118 34.032941h12.047059a32.527059 32.527059 0 0 0 34.032941-34.032941z"  horiz-adv-x="1024" />

    
    <glyph glyph-name="czIcon-KITCHEN" unicode="&#58918;" d="M794.804706 273.167059H229.496471a21.383529 21.383529 0 0 1-21.684706-21.38353v-164.743529a21.684706 21.684706 0 0 1 21.684706-21.684706h565.308235a21.684706 21.684706 0 0 1 21.383529 21.684706v164.743529a21.383529 21.383529 0 0 1-21.383529 21.38353z m-21.684706-164.74353H250.88v120.470589h522.24zM971.896471 576.451765H903.529412v120.470588a21.383529 21.383529 0 0 1-21.38353 21.684706h-72.282353l90.352942 90.352941a21.684706 21.684706 0 0 1-30.117647 30.117647l-120.470589-120.470588h-168.658823a21.684706 21.684706 0 0 1-21.684706-21.684706v-120.470588h-69.270588V720.414118h49.091764a21.684706 21.684706 0 1 1 0 43.068235h-49.091764V808.96a21.383529 21.383529 0 0 1-21.38353 21.684706h-301.17647a21.383529 21.383529 0 0 1-21.38353-21.684706V763.482353H94.569412a21.684706 21.684706 0 1 1 0-43.068235h51.501176v-143.962353H52.404706a21.684706 21.684706 0 0 1-21.684706-21.684706v-87.341177a21.684706 21.684706 0 0 1 21.684706-21.684706h39.755294V-7.529411999999979a21.383529 21.383529 0 0 1 21.383529-21.684706h71.68l-4.517647-21.082353a21.383529 21.383529 0 0 1 15.661177-26.202353h5.12a21.684706 21.684706 0 0 1 21.082353 16.564706l7.529412 30.117647h564.103529l7.830588-30.117647a21.082353 21.082353 0 0 1 20.781177-16.564706h5.12a21.985882 21.985882 0 0 1 15.962353 26.202353l-5.12 20.781177h71.378823a21.684706 21.684706 0 0 1 21.684706 21.684706V444.235294h39.755294a21.383529 21.383529 0 0 1 21.684706 21.38353v89.148235a21.082353 21.082353 0 0 1-21.383529 21.684706zM602.352941 674.0329409999999h257.505883v-97.581176H602.352941zM189.138824 787.576471h257.505882v-210.82353H189.138824z m699.632941-773.722353h-752.941177V444.235294h752.941177z m60.235294 474.955294H73.788235V534.5882349999999h876.42353zM591.811765 296.658824a65.957647 65.957647 0 1 1-65.957647 65.957647 65.957647 65.957647 0 0 1 65.957647-65.957647z m0 88.847058a22.889412 22.889412 0 1 0-22.588236-22.889411 22.889412 22.889412 0 0 0 22.588236 21.383529zM752.941176 296.658824a65.957647 65.957647 0 1 1-65.957647 65.957647A66.258824 66.258824 0 0 1 752.941176 296.658824z m0 87.341176a22.889412 22.889412 0 1 0-22.889411-22.889412A22.889412 22.889412 0 0 0 752.941176 384zM271.058824 296.658824a65.957647 65.957647 0 1 1-65.957648 65.957647A65.957647 65.957647 0 0 1 271.058824 296.658824zM271.058824 384a22.889412 22.889412 0 1 0-22.588236-22.889412A22.889412 22.889412 0 0 0 271.058824 384zM432.188235 296.658824a65.957647 65.957647 0 1 1-65.957647 65.957647 65.957647 65.957647 0 0 1 65.957647-65.957647z m0 88.847058a22.889412 22.889412 0 1 0-22.889411-22.889411 23.190588 23.190588 0 0 0 22.889411 21.383529z"  horiz-adv-x="1024" />

    
    <glyph glyph-name="czIcon-INDUCTION_COOKER" unicode="&#58919;" d="M357.195294 408.395294v-20.178823a74.089412 74.089412 0 0 1 0-8.432942L46.682353 519.529412 30.117647 482.183529l335.811765-150.588235a198.776471 198.776471 0 0 1 188.53647-140.649412h240.941177A198.776471 198.776471 0 0 1 993.882353 388.216471v20.178823z m439.416471-176.790588h-240.941177a155.708235 155.708235 0 0 0-154.503529 136.131765h551.152941a155.708235 155.708235 0 0 0-155.708235-136.131765zM745.712941 585.185882h40.658824v-115.952941h-40.658824zM654.155294 662.5882349999999h40.658824v-193.054117h-40.658824zM397.854118 146.07058800000004h555.068235v-40.658823H397.854118zM564.705882 585.185882h40.658824v-115.952941h-40.658824z"  horiz-adv-x="1024" />

    
    <glyph glyph-name="czIcon-AIR_CONDITIONER" unicode="&#58920;" d="M893.289412 745.4117650000001H130.710588A99.388235 99.388235 0 0 1 30.117647 644.818824v-198.475295a99.689412 99.689412 0 0 1 100.291765-100.592941h762.88A99.689412 99.689412 0 0 1 993.882353 446.343529V644.818824A99.388235 99.388235 0 0 1 893.289412 745.4117650000001zM130.710588 705.054118h762.578824a60.235294 60.235294 0 0 0 60.235294-60.235294v-102.4H70.475294v102.4a60.235294 60.235294 0 0 0 60.235294 60.235294z m762.578824-318.945883H130.710588a60.235294 60.235294 0 0 0-60.235294 60.235294v56.018824h883.049412v-56.018824a60.235294 60.235294 0 0 0-60.235294-60.235294zM457.788235 205.40235299999995a71.077647 71.077647 0 0 1-37.948235 50.296471l-18.070588-36.141177a42.465882 42.465882 0 0 0 18.070588-22.287059 36.141176 36.141176 0 0 0-14.155294-30.117647 110.531765 110.531765 0 0 1 2.108235-144.564706l31.924706 26.202353c-1.807059 0-42.164706 52.103529-6.023529 92.16a73.185882 73.185882 0 0 1 24.094117 64.451765zM275.275294 205.40235299999995a70.475294 70.475294 0 0 1-38.249412 50.296471l-18.070588-36.141177s16.263529-10.24 18.070588-22.287059a38.249412 38.249412 0 0 0-13.854117-30.117647 110.832941 110.832941 0 0 1 1.807059-144.564706l32.225882 26.202353c-2.108235 0-42.164706 52.103529-6.02353 92.16a73.185882 73.185882 0 0 1 24.094118 64.451765zM640.301176 205.40235299999995A71.077647 71.077647 0 0 1 602.352941 255.69882399999995l-18.070588-36.141177s15.962353-10.24 18.070588-22.287059a38.550588 38.550588 0 0 0-14.155294-30.117647c-46.08-52.404706-18.070588-116.555294 3.915294-144.564706l30.117647 26.202353c-1.807059 1.807059-42.164706 53.910588-6.023529 92.16a72.282353 72.282353 0 0 1 24.094117 64.451765zM674.635294 470.136471h62.042353v-40.056471H674.635294zM824.922353 205.40235299999995a71.077647 71.077647 0 0 1-37.948235 50.296471l-18.070589-36.141177a42.465882 42.465882 0 0 0 18.070589-22.287059 36.141176 36.141176 0 0 0-14.155294-30.117647 110.531765 110.531765 0 0 1 2.108235-144.564706l31.924706 26.202353c-1.807059 0-42.164706 52.103529-6.02353 92.16a72.282353 72.282353 0 0 1 24.094118 64.451765zM774.927059 470.136471h62.343529v-40.056471h-62.343529z"  horiz-adv-x="1024" />

    
    <glyph glyph-name="czIcon-GAS_STOVE" unicode="&#58921;" d="M117.76 449.656471h23.491765A153.298824 153.298824 0 0 1 271.058824 320.15058799999997v-23.792941a21.985882 21.985882 0 1 1 43.670588 0v23.792941a152.997647 152.997647 0 0 1 129.807059 129.505883h23.792941a21.985882 21.985882 0 0 1 0 43.971764h-23.792941a152.997647 152.997647 0 0 1-129.807059 129.505883v23.792941a21.383529 21.383529 0 0 1-10.541177 19.877647 21.684706 21.684706 0 0 1-22.588235 0 21.383529 21.383529 0 0 1-10.541176-19.877647v-23.792941a153.298824 153.298824 0 0 1-129.807059-129.505883h-23.491765a22.588235 22.588235 0 0 1-20.178824-10.541176 22.287059 22.287059 0 0 1 0-22.889412 22.588235 22.588235 0 0 1 20.178824-10.541176zM271.058824 578.861176v-19.57647a21.985882 21.985882 0 1 1 43.670588 0v19.57647a109.929412 109.929412 0 0 0 85.534117-85.232941h-19.57647a22.588235 22.588235 0 0 1-20.178824-10.541176 22.287059 22.287059 0 0 1 0-22.889412 22.588235 22.588235 0 0 1 20.178824-10.541176h19.57647a109.628235 109.628235 0 0 0-85.534117-85.232942V384A21.985882 21.985882 0 0 1 271.058824 384v-19.576471a109.327059 109.327059 0 0 0-85.232942 85.232942h19.576471a21.985882 21.985882 0 0 1 0 43.971764h-19.576471A109.327059 109.327059 0 0 0 271.058824 578.861176z m284.611764-129.204705h23.792941a152.997647 152.997647 0 0 1 129.807059-129.505883v-23.792941a21.985882 21.985882 0 1 1 43.670588 0v23.792941a153.298824 153.298824 0 0 1 129.807059 129.505883h23.491765a21.985882 21.985882 0 0 1 0 43.971764h-23.491765A153.298824 153.298824 0 0 1 752.941176 623.134118v23.792941a21.985882 21.985882 0 0 1-43.670588 0v-23.792941a152.997647 152.997647 0 0 1-129.807059-129.505883h-23.792941a21.985882 21.985882 0 0 1 0-43.971764z m153.6 129.204705v-19.57647a21.985882 21.985882 0 1 1 43.670588 0v19.57647a109.327059 109.327059 0 0 0 85.232942-85.232941h-19.576471a21.985882 21.985882 0 0 1 0-43.971764h19.576471A109.327059 109.327059 0 0 0 752.941176 364.42352900000003V384a21.985882 21.985882 0 0 1-43.670588 0v-19.576471a109.327059 109.327059 0 0 0-85.534117 85.232942h19.57647a22.588235 22.588235 0 0 1 20.178824 10.541176 22.287059 22.287059 0 0 1 0 22.889412 22.588235 22.588235 0 0 1-20.178824 10.541176h-19.57647a109.628235 109.628235 0 0 0 85.232941 85.232941z m0 0M928.225882 734.569412H95.774118A65.957647 65.957647 0 0 1 30.117647 668.611765v-569.22353a65.957647 65.957647 0 0 1 65.656471-65.957647h832.451764A65.957647 65.957647 0 0 1 993.882353 99.38823500000001V668.611765a65.957647 65.957647 0 0 1-65.656471 65.957647zM95.774118 690.597647h832.451764a21.985882 21.985882 0 0 0 21.985883-21.985882v-437.910589H73.788235V668.611765a21.985882 21.985882 0 0 0 21.985883 21.985882z m832.451764-613.195294H95.774118a20.781176 20.781176 0 0 0-15.36 5.421176 21.985882 21.985882 0 0 0-6.625883 15.661177v87.341176h876.42353v-87.341176a21.985882 21.985882 0 0 0-21.985883-21.985882z m0 0M293.044706 165.04470600000002a22.287059 22.287059 0 0 1-15.661177-6.625882A22.287059 22.287059 0 0 1 271.058824 143.05882399999996v-21.985883a21.985882 21.985882 0 0 1 43.670588 0V143.05882399999996a21.985882 21.985882 0 0 1-21.684706 21.985882z m437.910588 0a21.985882 21.985882 0 0 1-21.684706-21.985882v-21.985883a21.383529 21.383529 0 0 1 10.541177-19.877647 21.684706 21.684706 0 0 1 22.588235 0 21.383529 21.383529 0 0 1 10.541176 19.877647V143.05882399999996a22.287059 22.287059 0 0 1-6.324705 15.36 22.287059 22.287059 0 0 1-15.661177 6.625882z m0 0"  horiz-adv-x="1024" />

    
    <glyph glyph-name="czIcon-PARKING_SPACE" unicode="&#58922;" d="M840.884706 470.136471h-53.609412L714.691765 685.176471H309.308235l-72.583529-215.04H183.115294l-22.287059-250.578824h702.34353zM337.317647 644.818824h349.364706l58.127059-174.682353H279.190588zM205.101176 259.61411799999996l13.854118 170.465882h586.089412l13.854118-170.465882zM319.548235 412.009412a68.367059 68.367059 0 1 1 68.065883-68.065883 67.764706 67.764706 0 0 1-68.065883 68.065883z m0-96.075294a28.009412 28.009412 0 1 0 28.009412 28.009411 27.407059 27.407059 0 0 0-28.009412-28.009411zM704.752941 412.009412a68.367059 68.367059 0 1 1 68.065883-68.065883 67.764706 67.764706 0 0 1-68.065883 68.065883z m0-96.075294a28.009412 28.009412 0 1 0 28.009412 28.009411 27.407059 27.407059 0 0 0-28.009412-28.009411zM241.242353 199.378824h40.056471v-96.376471H241.242353zM742.701176 199.378824h40.056471v-96.376471h-40.056471zM512 865.882353a496.941176 496.941176 0 0 1-206.607059-46.08l15.962353-36.141177A455.981176 455.981176 0 0 0 512 825.524706 441.524706 441.524706 0 1 0 70.475294 384a486.701176 486.701176 0 0 0 12.047059 110.230588L44.574118 504.470588A454.475294 454.475294 0 0 1 30.117647 384 481.882353 481.882353 0 1 1 512 865.882353zM136.734118 644.818824h36.141176a446.945882 446.945882 0 0 1 58.127059 3.915294 101.195294 101.195294 0 0 1 30.117647 14.155294 80.112941 80.112941 0 0 1 24.094118 28.009412 96.075294 96.075294 0 0 1 10.24 44.272941 90.352941 90.352941 0 0 1-16.26353 54.211764 70.776471 70.776471 0 0 1-40.05647 28.009412 434.296471 434.296471 0 0 1-68.065883 3.915294H78.607059v-280.69647l58.127059-2.108236z m0 130.710588h28.310588a177.392941 177.392941 0 0 0 40.05647-2.108236 66.861176 66.861176 0 0 0 24.094118-12.047058 39.454118 39.454118 0 0 0 7.830588-25.901177 39.152941 39.152941 0 0 0-6.023529-22.287059 30.117647 30.117647 0 0 0-18.070588-13.854117 172.272941 172.272941 0 0 0-43.971765-3.915294H136.734118z"  horiz-adv-x="1024" />

    
    <glyph glyph-name="czIcon-WARDROBE" unicode="&#58923;" d="M390.023529 531.5764710000001h39.454118v-118.061177h-39.454118zM280.094118 98.78588200000002h78.607058v-39.454117H280.094118zM99.087059 865.882353v-963.764706h39.152941v48.790588h747.52V-97.88235299999997h39.152941V865.882353z m391.529412-875.52H138.24v167.454118h352.075294z m0 206.908235H138.24V826.428235h352.075294z m395.444705-206.908235H529.769412v167.454118h355.990588z m0 206.908235H529.769412V826.428235h355.990588zM586.691765 531.5764710000001h39.454117v-118.061177h-39.454117zM665.298824 98.78588200000002h78.607058v-39.454117h-78.607058z"  horiz-adv-x="1024" />

    
    <glyph glyph-name="czIcon-GYM" unicode="&#58924;" d="M325.270588 116.25411799999995H134.927059V651.7458819999999h190.343529z m-150.588235 40.05647h110.531765V611.689412H174.983529z m0 0M174.983529 252.68705899999998H30.117647v262.625882h144.564706zM70.475294 293.647059h64.451765v180.705882H70.475294zM993.882353 252.68705899999998h-144.564706v262.625882H993.882353zM889.072941 293.647059h64.451765v180.705882h-64.451765z m0 0M889.072941 116.25411799999995H698.729412V651.7458819999999h190.343529z m-150.588235 40.05647h110.230588V611.689412h-109.929412z m0 0M305.392941 405.082353h413.214118v-40.056471H305.392941z"  horiz-adv-x="1024" />

    
    <glyph glyph-name="czIcon-SHOWER" unicode="&#58925;" d="M977.016471 63.247059000000036h-80.112942V730.352941a122.578824 122.578824 0 0 1-30.117647 93.06353 128.301176 128.301176 0 0 1-182.814117 6.324705l-66.258824-76.8L572.235294 797.515294c-3.011765 0-9.637647 3.312941-12.649412 3.312941h-127.698823c-6.324706 0-15.962353-3.312941-15.962353-9.637647a43.971765 43.971765 0 0 1 3.011765-19.275294l224.677647-224.37647c3.011765 0 9.336471-3.312941 12.649411-3.312942H662.588235a17.468235 17.468235 0 0 1 9.637647 16.26353V688.489412c0 3.312941-3.011765 9.637647-3.011764 12.950588l-30.117647 30.117647 67.463529 73.788235a99.689412 99.689412 0 0 0 137.938824-3.312941 79.811765 79.811765 0 0 0 19.275294-67.162353v-671.623529H46.983529a15.058824 15.058824 0 0 1-15.962353-15.962353v-48.188235A94.268235 94.268235 0 0 1 127.096471-97.88235299999997h769.807058A94.268235 94.268235 0 0 1 993.882353-0.9035290000000487v48.188235a15.058824 15.058824 0 0 1-16.865882 15.962353zM640.301176 598.738824l-169.863529 170.164705h83.124706l86.738823-86.738823z m320.752942-599.642353a64.451765 64.451765 0 0 0-64.150589-64.150589H127.096471a64.451765 64.451765 0 0 0-64.150589 64.150589v32.225882h898.108236zM335.510588 608.376471c3.312941 0 9.637647 0 9.637647 6.625882l64.150589 64.150588a15.058824 15.058824 0 0 1 0 22.287059 15.36 15.36 0 0 1-22.287059 0l-64.150589-64.150588a34.334118 34.334118 0 0 1 0-25.6 18.371765 18.371765 0 0 1 12.649412-3.312941zM481.882353 451.463529a18.974118 18.974118 0 0 1 12.950588-3.312941c3.011765 0 9.637647 0 9.637647 3.312941l64.150588 64.150589a15.36 15.36 0 0 1 0 22.287058 15.962353 15.962353 0 0 1-22.588235 0L481.882353 474.352941a15.36 15.36 0 0 1 0-22.889412zM467.124706 618.014118l-64.150588-64.150589a15.36 15.36 0 0 1 0-22.287058 18.974118 18.974118 0 0 1 12.950588-3.312942c3.011765 0 9.637647 0 9.637647 3.312942l63.849412 63.247058a15.661176 15.661176 0 0 1-22.287059 22.287059z"  horiz-adv-x="1024" />

    
    <glyph glyph-name="czIcon-CHAIR" unicode="&#58926;" d="M284.611765 710.174118H752.941176V827.030588H284.611765z m-63.548236-331.294118a34.032941 34.032941 0 0 1 0-67.764706h581.872942a34.032941 34.032941 0 0 1 0 67.764706z m569.22353 38.851765h12.649412a72.583529 72.583529 0 0 0 44.574117-130.108236V-97.88235299999997h-135.830588V215.64235299999996h38.851765v-274.672941h58.127059V263.529412H226.183529v-322.56h61.741177v274.672941h38.851765V-97.88235299999997H187.331765V281.29882399999997a72.583529 72.583529 0 0 0 33.731764 137.035294h24.395295V827.030588A39.152941 39.152941 0 0 0 284.611765 865.882353H752.941176a38.851765 38.851765 0 0 0 38.851765-38.851765v-408.69647z m-38.851765 0V671.322353H284.611765v-252.988235z m0 0"  horiz-adv-x="1024" />

    
    <glyph glyph-name="czIcon-twoFullbacks" unicode="&#58927;" d="M507.181176 748.724706a21.082353 21.082353 0 0 1-15.36 6.927059H50.296471a21.082353 21.082353 0 0 1-15.36-6.927059 20.178824 20.178824 0 0 1-4.818824-16.26353l12.950588-80.414117a20.178824 20.178824 0 0 1 19.877647-16.865883h30.117647l20.178824-196.367058H90.352941a19.877647 19.877647 0 0 1-20.178823-19.877647v-87.642353a193.355294 193.355294 0 0 1 112.941176-173.778824l-21.985882-120.470588a19.275294 19.275294 0 0 1 4.21647-16.564706 19.877647 19.877647 0 0 1 15.36-7.228235h180.705883a20.178824 20.178824 0 0 1 15.36 7.228235 19.275294 19.275294 0 0 1 4.21647 16.564706l-22.287059 120.470588a193.054118 193.054118 0 0 1 112.941177 173.778824v87.642353a19.877647 19.877647 0 0 1-20.178824 19.877647h-21.985882l12.047059 115.952941h23.190588a20.178824 20.178824 0 0 1 20.178824 20.178823 19.877647 19.877647 0 0 1-20.178824 19.877647h-18.974118l3.915295 40.357647h30.117647a20.178824 20.178824 0 0 1 19.877647 17.167059L512 732.461176a20.178824 20.178824 0 0 1-4.517647 16.26353zM337.317647 52.705881999999974H204.8l16.865882 90.352942a196.065882 196.065882 0 0 1 98.785883 0zM271.058824 177.99529399999994a157.214118 157.214118 0 0 0-160.527059 152.997647v27.407059h321.054117v-27.407059A157.214118 157.214118 0 0 0 271.058824 177.99529399999994z m160.527058 200.58353H110.531765v20.178823h321.054117zM405.383529 594.823529h-12.047058a20.178824 20.178824 0 0 1-20.178824-20.178823 19.877647 19.877647 0 0 1 20.178824-19.877647h7.830588l-12.047059-115.952941H152.997647l-20.178823 196.367058h276.48z m56.621177 80.414118H80.112941L73.788235 715.294118h394.541177z m0 0M989.063529 748.724706a21.082353 21.082353 0 0 1-15.36 6.927059H532.178824a21.082353 21.082353 0 0 1-15.36-6.927059 20.178824 20.178824 0 0 1-4.517648-16.26353l12.649412-80.414117a20.178824 20.178824 0 0 1 19.877647-16.865883h30.117647l20.178824-196.367058H572.235294a19.877647 19.877647 0 0 1-20.178823-19.877647v-87.642353a193.355294 193.355294 0 0 1 112.941176-173.778824l-21.985882-120.470588a19.275294 19.275294 0 0 1 4.21647-16.564706 19.877647 19.877647 0 0 1 15.36-7.228235h180.705883a20.178824 20.178824 0 0 1 15.36 7.228235 19.275294 19.275294 0 0 1 4.21647 16.564706l-22.287059 120.470588a193.054118 193.054118 0 0 1 112.941177 173.778824v87.642353a19.877647 19.877647 0 0 1-20.178824 19.877647h-21.985882l12.047059 115.952941h23.190588a20.178824 20.178824 0 0 1 20.178824 20.178823 19.877647 19.877647 0 0 1-20.178824 19.877647h-18.974118l3.915295 40.357647h30.117647a20.178824 20.178824 0 0 1 19.877647 17.167059L993.882353 732.461176a20.178824 20.178824 0 0 1-4.517647 16.26353zM819.2 52.705881999999974h-132.517647l16.865882 90.352942a196.065882 196.065882 0 0 1 98.785883 0zM752.941176 177.99529399999994a157.214118 157.214118 0 0 0-160.527058 152.997647v27.407059h321.054117v-27.407059A157.214118 157.214118 0 0 0 752.941176 177.99529399999994z m160.527059 200.58353H592.414118v20.178823h321.054117zM887.265882 594.823529h-12.047058a20.178824 20.178824 0 0 1-20.178824-20.178823 19.877647 19.877647 0 0 1 20.178824-19.877647h7.830588l-12.047059-115.952941h-236.122353l-20.178824 196.367058h276.48z m56.621177 80.414118H561.995294L555.670588 715.294118h394.541177z m0 0"  horiz-adv-x="1024" />

    
    <glyph glyph-name="czIcon-HAIR_DRYER" unicode="&#58928;" d="M118.362353 669.214118c-22.287059-15.962353-35.237647-25.6-60.235294 0-6.324706 6.625882-19.275294 6.625882-22.588235 0a28.310588 28.310588 0 0 1 0-22.287059 71.378824 71.378824 0 0 1 51.501176-25.6 84.028235 84.028235 0 0 1 51.2 22.287059c25.6 16.263529 35.237647 25.6 57.825882 0 6.324706-3.011765 22.287059-6.324706 25.6 0a24.395294 24.395294 0 0 1-3.312941 25.6c-42.164706 41.863529-77.402353 15.962353-99.990588 0zM118.362353 477.063529c-22.287059-16.263529-35.237647-25.6-60.235294 0a15.962353 15.962353 0 0 1-22.588235-22.588235 71.378824 71.378824 0 0 1 51.501176-25.6 84.329412 84.329412 0 0 1 51.2 22.588235c22.588235 18.974118 35.237647 25.6 57.825882 3.011765a15.962353 15.962353 0 0 1 22.287059 22.588235c-42.164706 41.562353-77.402353 15.962353-99.990588 0zM118.362353 573.138824c-22.287059-15.962353-35.237647-25.6-60.235294 0-6.324706 6.324706-19.275294 6.324706-22.588235 0a28.310588 28.310588 0 0 1 0-22.287059 71.981176 71.981176 0 0 1 51.501176-25.901177 84.329412 84.329412 0 0 1 51.2 22.588236c25.6 15.962353 35.237647 25.6 60.235294 0 6.625882-6.324706 19.275294-6.324706 22.588235 0a24.395294 24.395294 0 0 1-3.312941 25.6c-41.562353 41.863529-76.8 15.962353-99.388235 0zM993.882353 560.489412a285.515294 285.515294 0 0 1-271.058824 271.058823 1048.094118 1048.094118 0 0 1-271.058823-53.308235 762.578824 762.578824 0 0 0-180.705882-41.562353 15.058824 15.058824 0 0 1-15.962353-15.962353v-320.752941A15.058824 15.058824 0 0 1 271.058824 384a916.48 916.48 0 0 0 174.381176-24.094118l-60.235294-328.583529a43.068235 43.068235 0 0 1-3.011765-19.275294 76.498824 76.498824 0 0 1 150.588235-19.275294l228.291765 313.825882A264.734118 264.734118 0 0 1 993.882353 560.489412zM506.277647 8.734117999999967c-3.011765-3.011765-3.011765-3.011765-3.011765-6.324706a44.574118 44.574118 0 0 0-41.863529-35.237647 43.971765 43.971765 0 0 0-44.875294 44.875294c0 3.312941 3.312941 6.324706 3.312941 12.950588l60.235294 327.981177 62.945882-13.854118c54.512941-12.950588 109.025882-25.6 147.576471-31.924706a28.009412 28.009412 0 0 1 15.962353-3.312941H722.823529z m221.364706 327.077647h-32.225882c-38.249412 6.625882-90.352941 19.275294-144.26353 32.225882a1378.484706 1378.484706 0 0 1-262.927059 47.887059V704.752941A969.788235 969.788235 0 0 1 458.390588 745.4117650000001c90.352941 25.6 185.825882 54.512941 262.927059 54.512941a250.88 250.88 0 0 0 240.941177-240.941177 233.712941 233.712941 0 0 0-234.616471-223.171764zM737.28 672.527059a128.301176 128.301176 0 1 1 128.301176-128.301177 128.602353 128.602353 0 0 1-128.301176 128.301177z m-96.376471-128.301177a101.797647 101.797647 0 0 0 5.722353 32.225883h180.705883a101.797647 101.797647 0 0 0 5.421176-32.225883 99.990588 99.990588 0 0 0-5.421176-31.924706h-180.705883a99.990588 99.990588 0 0 0-5.722353 31.924706z m96.376471 96.376471a94.268235 94.268235 0 0 0 71.981176-32.225882h-144.263529a94.870588 94.870588 0 0 0 72.282353 32.225882z m0-192.451765a95.472941 95.472941 0 0 0-72.282353 31.924706h144.263529a94.870588 94.870588 0 0 0-71.981176-31.924706z"  horiz-adv-x="1024" />

    
    <glyph glyph-name="czIcon-MICROWAVE_OVEN" unicode="&#58929;" d="M361.411765 300.87529400000005a83.425882 83.425882 0 0 0-9.938824-12.649412 16.564706 16.564706 0 0 1-1.505882-23.491764 16.865882 16.865882 0 0 1 23.491765 0 104.207059 104.207059 0 0 1 15.661176 18.974117 82.522353 82.522353 0 0 1-15.058824 113.54353 49.694118 49.694118 0 0 0-10.541176 71.077647 83.425882 83.425882 0 0 0 9.938824 12.649412 16.263529 16.263529 0 0 1 0 23.491764 16.564706 16.564706 0 0 1-23.190589 0 103.303529 103.303529 0 0 1-15.962353-18.974117 83.124706 83.124706 0 0 1 15.36-113.54353 49.694118 49.694118 0 0 0 11.745883-71.077647zM744.508235 616.508235H146.371765a16.564706 16.564706 0 0 1-16.564706-16.564706v-398.757647a16.564706 16.564706 0 0 1 16.564706-16.564706h598.13647a16.865882 16.865882 0 0 1 16.865883 16.564706V599.943529a16.564706 16.564706 0 0 1-16.865883 16.564706z m-16.564706-398.757647H162.936471V583.378824h565.007058zM503.868235 308.40470600000003a73.487059 73.487059 0 0 0-9.938823-11.444706 16.865882 16.865882 0 0 1-2.108236-23.491765 16.564706 16.564706 0 0 1 23.491765-1.807059 92.461176 92.461176 0 0 1 15.962353 18.070589 79.811765 79.811765 0 0 1-15.058823 111.134117 53.308235 53.308235 0 0 0-10.541177 73.487059 65.656471 65.656471 0 0 0 10.541177 13.251765 16.865882 16.865882 0 0 1-23.190589 24.094118 116.254118 116.254118 0 0 1-15.36-19.576471 85.534118 85.534118 0 0 1 15.36-115.651765 47.585882 47.585882 0 0 0 10.842353-68.065882zM844.197647 287.322353h33.129412v-66.56h-33.129412zM844.197647 552.96h33.129412v-66.56h-33.129412zM944.188235 715.294118H79.811765A49.392941 49.392941 0 0 1 30.117647 666.804706v-532.178824a49.694118 49.694118 0 0 1 49.694118-49.694117h66.56V52.705881999999974H274.070588v33.129412h470.437647V52.705881999999974H873.411765v33.129412h71.981176A49.392941 49.392941 0 0 1 993.882353 134.62588200000005V666.804706A49.392941 49.392941 0 0 1 944.188235 715.294118z m16.564706-581.571765a16.263529 16.263529 0 0 0-16.564706-16.564706H79.811765a16.564706 16.564706 0 0 0-16.564706 16.564706V666.804706a16.263529 16.263529 0 0 0 16.564706 16.263529h864.37647a16.564706 16.564706 0 0 0 16.564706-16.263529zM844.197647 420.141176h33.129412v-66.56h-33.129412z"  horiz-adv-x="1024" />

    
    <glyph glyph-name="czIcon-RECEPTION" unicode="&#58930;" d="M150.588235-58.729412000000025A55.416471 55.416471 0 0 0 99.388235-7.529411999999979v189.741177H90.352941A55.416471 55.416471 0 0 0 39.152941 233.41176499999995v60.235294A55.416471 55.416471 0 0 0 90.352941 344.84705899999994h189.741177v78.305882H180.705882a19.576471 19.576471 0 0 0-21.082353 21.082353V624.941176a19.576471 19.576471 0 0 0 21.082353 21.082353h240.941177a19.576471 19.576471 0 0 0 21.082353-21.082353v-180.705882a19.576471 19.576471 0 0 0-21.082353-21.082353h-99.388235v-78.305882h198.77647V474.352941a55.416471 55.416471 0 0 0 51.2 51.2h240.941177a56.018824 56.018824 0 0 0 51.2-51.2v-129.505882H933.647059a55.416471 55.416471 0 0 0 51.2-51.2v-60.235294a55.416471 55.416471 0 0 0-51.2-51.2h-9.035294V-7.529411999999979a56.018824 56.018824 0 0 0-51.2-51.2z m-9.035294 42.164706h740.894118v198.776471H141.552941z m-60.235294 240.941177h861.364706v78.305882H81.317647zM602.352941 483.388235a37.345882 37.345882 0 0 1-39.152941-39.152941v-99.388235h259.011765V444.235294a37.345882 37.345882 0 0 1-39.152941 39.152941z m-400.564706-18.070588h198.776471V603.858824H201.788235zM692.705882 603.858824A111.435294 111.435294 0 1 0 804.141176 715.294118 111.435294 111.435294 0 0 0 692.705882 603.858824z m0 180.705882A65.355294 65.355294 0 0 1 623.435294 715.294118 65.355294 65.355294 0 0 1 692.705882 646.023529 65.355294 65.355294 0 0 1 761.976471 715.294118 65.355294 65.355294 0 0 1 692.705882 784.564706z"  horiz-adv-x="1024" />

    
    <glyph glyph-name="czIcon-workBench" unicode="&#58931;" d="M913.468235 125.59058800000003H110.531765A80.715294 80.715294 0 0 0 30.117647 206.305882V715.294118a81.016471 81.016471 0 0 0 80.414118 81.618823h802.93647A81.016471 81.016471 0 0 0 993.882353 715.294118v-78.908236a26.202353 26.202353 0 0 0-13.251765-23.792941 27.105882 27.105882 0 0 0-27.105882 0 26.804706 26.804706 0 0 0-13.251765 23.792941V715.294118a26.804706 26.804706 0 0 1-26.804706 27.407058H110.531765a27.105882 27.105882 0 0 1-26.804706-27.407058v-508.988236a26.804706 26.804706 0 0 1 26.804706-27.105882h802.93647a26.804706 26.804706 0 0 1 26.804706 27.105882V474.352941a27.708235 27.708235 0 0 0 13.251765 23.792941A26.804706 26.804706 0 0 0 993.882353 474.352941v-268.047059a80.715294 80.715294 0 0 0-80.414118-80.715294z m-187.331764-154.503529H297.863529a27.708235 27.708235 0 0 0-23.792941 13.251765 26.804706 26.804706 0 0 0 23.792941 40.357647h428.272942a26.804706 26.804706 0 0 0 0-53.609412z m0 0M643.312941 315.03058799999997a25.6 25.6 0 0 0-18.672941 7.830588L463.811765 483.388235a26.804706 26.804706 0 0 0 37.948235 37.948236L662.588235 360.80941199999995a26.804706 26.804706 0 0 0-18.974117-45.778824z m0 0M421.647059 416.828235l-41.86353 169.86353a13.552941 13.552941 0 0 0 16.26353 16.263529l169.863529-42.164706a14.155294 14.155294 0 0 0 9.637647-9.33647 12.950588 12.950588 0 0 0-3.614117-12.950589l-128-128a13.552941 13.552941 0 0 0-12.950589-3.312941 13.251765 13.251765 0 0 0-9.33647 9.637647z m0 0M512-24.99764700000003a26.503529 26.503529 0 0 0-18.974118 7.830588 25.901176 25.901176 0 0 0-7.830588 18.974118v123.783529a26.804706 26.804706 0 0 0 53.609412 0v-123.783529a27.105882 27.105882 0 0 0-7.830588-18.974118 26.503529 26.503529 0 0 0-18.974118-7.830588z m0 0"  horiz-adv-x="1024" />

    
    <glyph glyph-name="czIcon-reportForm" unicode="&#58932;" d="M68.065882 60.536471000000006V682.465882A223.774118 223.774118 0 0 1 60.235294 745.4117650000001H30.117647v-722.82353h960.150588l3.614118 3.915294v32.527059c-308.404706 3.614118-617.110588 0.602353-925.816471 1.505883zM584.282353 117.75999999999999h62.343529c0 84.931765 2.108235 170.164706 0 255.096471a30.117647 30.117647 0 0 1-60.235294 3.915294c-4.818824-86.136471-0.903529-173.477647-2.108235-259.011765zM760.169412 117.75999999999999h62.644706V543.021176a32.828235 32.828235 0 1 1-62.644706 0c-0.301176-141.854118 0-283.407059 0-425.261176zM408.094118 117.75999999999999h62.644706V442.428235c0 15.058824 0 33.731765-12.950589 43.068236a31.623529 31.623529 0 0 1-49.694117-30.117647c-0.602353-112.941176 0.602353-225.28 0-337.618824zM232.207059 117.75999999999999h62.644706c0 56.018824 2.710588 112.338824-1.807059 168.357647a32.225882 32.225882 0 0 1-58.428235 2.710588c-5.421176-56.922353-0.903529-115.651765-2.409412-171.068235z"  horiz-adv-x="1024" />

    
    <glyph glyph-name="czIcon-LAUNDRY" unicode="&#58933;" d="M832.752941 572.536471l-168.357647 90.352941-15.058823-18.974118a533.985882 533.985882 0 0 1-125.289412 20.781177V722.823529a74.992941 74.992941 0 0 1 52.103529 69.872942 72.282353 72.282353 0 1 1-144.263529 0h40.05647a32.225882 32.225882 0 1 0 31.924706-31.924706h-19.877647v-96.075294a396.348235 396.348235 0 0 1-109.628235-18.974118l-14.757647 18.974118-168.357647-90.352942-156.310588-471.04 110.230588-53.910588 108.423529 180.705883V-97.88235299999997h516.818824V229.79764699999998l108.423529-180.705882 110.230588 53.910588z m-208.715294 38.550588L512 468.630588l-112.941176 144.564706a423.454118 423.454118 0 0 0 224.978823-2.108235z m-132.216471-668.009412H293.647059V374.06117600000005l-164.442353-272.564705-46.08 21.985882 140.348235 424.96 124.084706 65.957647 144.263529-184.32z m238.531765 430.983529v-430.983529h-198.174117V430.08l144.263529 182.512941 124.084706-66.258823 140.348235-421.647059-46.08-21.985883z"  horiz-adv-x="1024" />

    
    <glyph glyph-name="czIcon-contract" unicode="&#58934;" d="M207.510588 658.371765A34.334118 34.334118 0 1 1 240.941176 692.404706a34.334118 34.334118 0 0 1-33.430588-34.032941z m120.470588-17.167059h445.741177a17.167059 17.167059 0 1 1 0 34.032941H327.68a18.371765 18.371765 0 0 1-17.167059-16.865882 18.371765 18.371765 0 0 1 17.167059-17.167059z m-120.470588-154.50353A34.334118 34.334118 0 1 1 240.941176 521.035294a34.334118 34.334118 0 0 1-34.334117-34.334118z m566.211765 17.769412H324.065882a15.962353 15.962353 0 0 1-16.865882-17.167059v-3.614117a15.962353 15.962353 0 0 1 16.865882-17.167059h449.656471a16.263529 16.263529 0 0 1 17.167059 17.167059v3.614117a16.263529 16.263529 0 0 1-17.167059 17.167059z m-566.211765-189.44A34.334118 34.334118 0 1 1 240.941176 349.36470599999996a34.334118 34.334118 0 0 1-34.334117-34.334118z m291.84 17.167059h-171.670588a17.167059 17.167059 0 0 1 0-34.334118h171.670588a17.167059 17.167059 0 0 1 0 34.334118zM207.510588 143.05882399999996A34.334118 34.334118 0 1 1 240.941176 177.694118 34.334118 34.334118 0 0 1 207.510588 143.05882399999996z m223.171765 17.167058h-103.002353a17.167059 17.167059 0 1 1 0-34.334117h103.002353a16.263529 16.263529 0 0 1 17.167059 17.167059 18.371765 18.371765 0 0 1-17.167059 17.167058z m226.484706 90.352942l-58.428235-6.927059 41.261176-44.574118-10.24-61.741176 54.814118 27.407058 51.501176-27.407058-10.24 61.741176 44.574118 44.574118-60.235294 6.927059-24.094118 58.127058z m0 0M680.96 68.06588199999999A153.298824 153.298824 0 1 0 790.588235 112.94117600000004a153.901176 153.901176 0 0 0-109.628235-44.875294z m0 274.371765a120.470588 120.470588 0 1 1 120.470588-120.470588 120.470588 120.470588 0 0 1-120.470588 120.470588z m0 0M835.162353-97.88235299999997H188.837647a90.352941 90.352941 0 0 0-90.352941 90.352941V775.529412a90.352941 90.352941 0 0 0 90.352941 90.352941h646.324706a90.352941 90.352941 0 0 0 90.352941-90.352941v-783.058824a90.352941 90.352941 0 0 0-90.352941-90.352941zM188.837647 818.597647A43.670588 43.670588 0 0 1 145.468235 775.529412v-783.058824a43.670588 43.670588 0 0 1 43.369412-43.369412h646.324706A43.670588 43.670588 0 0 1 878.531765-7.529411999999979V775.529412a43.670588 43.670588 0 0 1-43.369412 43.369412z"  horiz-adv-x="1024" />

    
    <glyph glyph-name="czIcon-APARTMENT_SUPERMARKET" unicode="&#58935;" d="M986.352941 482.183529L524.950588 861.364706a20.781176 20.781176 0 0 1-25.901176 0L240.941176 650.24V775.529412a18.974118 18.974118 0 0 1-20.178823 19.877647 18.672941 18.672941 0 0 1-18.672941-19.877647v-158.418824l-164.442353-134.927059a19.576471 19.576471 0 0 1-2.108235-28.310588 19.877647 19.877647 0 0 1 28.009411-3.915294l78.305883 64.150588v-591.811764a19.275294 19.275294 0 0 1 20.178823-20.178824h702.042353a19.275294 19.275294 0 0 1 20.178824 20.178824V514.1082349999999L963.764706 449.957647a28.310588 28.310588 0 0 1 12.047059-3.915294 13.552941 13.552941 0 0 1 14.155294 7.830588 19.576471 19.576471 0 0 1-3.614118 28.310588zM410.804706-57.52470600000004V269.251765h204.498823v-326.776471z m433.091765 0h-188.536471V289.43058799999994a18.974118 18.974118 0 0 1-19.877647 20.178824H391.529412a19.275294 19.275294 0 0 1-20.178824-20.178824v-346.955294H180.705882V547.2376469999999l331.294118 271.058824 331.294118-271.058824zM298.465882 441.825882c-22.287059 10.24-32.225882 16.263529-32.225882 32.225883 0 9.938824 8.131765 24.094118 30.117647 24.094117a76.498824 76.498824 0 0 0 30.117647-8.131764l6.02353 18.070588a82.221176 82.221176 0 0 1-36.141177 8.131765c-32.225882 0-52.103529-18.070588-52.103529-44.272942s15.962353-36.141176 42.164706-46.08 30.117647-15.962353 30.117647-32.225882-11.745882-28.009412-34.032942-28.009412a76.498824 76.498824 0 0 0-37.948235 10.24l-2.108235-18.070588a87.04 87.04 0 0 1 42.164706-10.24c37.948235 0 56.018824 22.287059 56.018823 46.08s-14.155294 38.249412-42.164706 48.188235zM585.185882 347.557647A76.8 76.8 0 0 1 662.588235 433.995294a71.68 71.68 0 0 1-72.282353 80.112941 76.197647 76.197647 0 0 1-78.305882-84.329411 74.691765 74.691765 0 0 1 73.185882-82.221177z m2.108236 150.588235c36.141176 0 52.103529-34.032941 52.103529-66.258823 0-38.249412-18.070588-68.065882-52.103529-68.065883s-52.103529 31.924706-52.10353 65.957648 18.070588 68.367059 52.10353 68.367058zM465.016471 443.934118h-78.305883v68.367058h-20.178823v-162.635294h20.178823v76.197647h78.305883v-76.197647h21.985882v162.635294h-21.985882v-68.367058zM689.694118 351.77411800000004h19.877647v64.150588a36.743529 36.743529 0 0 1 15.962353-2.108235 70.174118 70.174118 0 0 1 50.29647 18.070588 46.983529 46.983529 0 0 1 12.047059 34.032941 48.489412 48.489412 0 0 1-14.155294 34.334118 63.548235 63.548235 0 0 1-46.08 13.854117 224.376471 224.376471 0 0 1-40.056471-3.915294h2.108236z m19.877647 142.45647a55.416471 55.416471 0 0 0 20.178823 1.807059c21.985882 0 37.948235-9.938824 37.948236-31.924706s-13.854118-34.334118-40.056471-34.334117a42.164706 42.164706 0 0 0-18.070588 2.108235z"  horiz-adv-x="1024" />

    
    <glyph glyph-name="czIcon-meterReading" unicode="&#58937;" d="M977.618824 809.562353L843.294118 863.472941a20.781176 20.781176 0 0 1-15.962353 0 44.875294 44.875294 0 0 1-9.938824-12.047059l-75.294117-191.548235H115.049412a81.016471 81.016471 0 0 1-81.92-81.92v-591.209412A85.232941 85.232941 0 0 1 115.049412-97.88235299999997h684.875294a81.016471 81.016471 0 0 1 81.92 81.92v512h-3.915294l111.73647 285.515294a20.781176 20.781176 0 0 1-12.047058 28.009412zM843.294118-15.058823999999959a43.369412 43.369412 0 0 0-41.86353-41.863529H116.856471a46.682353 46.682353 0 0 0-43.670589 43.670588V577.957647a43.369412 43.369412 0 0 0 41.86353 41.863529h612.291764l-93.063529-237.628235a15.962353 15.962353 0 0 1 0-8.432941 30.117647 30.117647 0 0 1 0-5.421176l2.108235-191.849412a18.974118 18.974118 0 0 1 11.745883-17.769412 11.745882 11.745882 0 0 1 8.131764-2.108235 18.070588 18.070588 0 0 1 13.854118 6.023529l131.915294 135.830588a18.974118 18.974118 0 0 1 5.722353 15.36l35.84 90.352942z m-169.261177 361.411765l84.931765-34.334117-84.931765-87.642353z m103.30353 0l-95.774118 39.755294 134.324706 341.534118 34.032941 90.352941 95.774118-40.357647zM152.997647 186.42823499999997h399.36v-40.05647H152.997647zM152.997647 68.66823499999998h399.36v-40.05647H152.997647zM152.997647 302.381176h399.36v-40.05647H152.997647zM152.997647 418.334118h399.36v-40.056471H152.997647zM737.882353 390.324706a15.058824 15.058824 0 0 1 8.131765-2.108235 17.167059 17.167059 0 0 1 18.070588 14.155294L897.807059 745.4117650000001a20.178824 20.178824 0 0 1-37.948235 13.854117l-133.722353-343.341176a20.48 20.48 0 0 1 11.745882-25.6zM152.997647 536.094118h399.36v-40.056471H152.997647z"  horiz-adv-x="1024" />

    
    <glyph glyph-name="czIcon-REFRIGERATOR" unicode="&#58938;" d="M961.054118 704.752941h-80.414118V800.828235a64.150588 64.150588 0 1 1-128 0v-833.65647a64.150588 64.150588 0 1 1 128 0V287.924706h80.414118a15.058824 15.058824 0 0 1 15.962353 15.962353V688.489412a15.36 15.36 0 0 1-15.962353 16.263529z m-112.338824-737.581176a32.225882 32.225882 0 1 0-64.150588 0V800.828235a32.225882 32.225882 0 1 0 64.150588 0z m96.075294 352.677647h-64.150588V672.527059h64.150588zM640.301176 865.882353h-512a79.209412 79.209412 0 0 1-81.317647-81.016471v-801.731764A79.209412 79.209412 0 0 1 127.096471-97.88235299999997h512a79.209412 79.209412 0 0 1 80.112941 80.112941V784.865882A79.209412 79.209412 0 0 1 640.301176 865.882353z m48.188236-881.844706a49.694118 49.694118 0 0 0-48.188236-48.188235h-512a49.392941 49.392941 0 0 0-47.887058 48.188235V784.865882a49.392941 49.392941 0 0 0 47.887058 48.188236h512a49.694118 49.694118 0 0 0 48.188236-48.188236zM640.301176 800.828235h-512a15.058824 15.058824 0 0 1-15.962352-15.962353v-801.731764a15.058824 15.058824 0 0 1 15.962352-15.962353h512a15.058824 15.058824 0 0 1 15.962353 15.962353V784.865882a15.058824 15.058824 0 0 1-15.962353 15.962353zM143.36 768.903529h481.882353v-224.677647h-481.882353z m481.882353-769.807058h-481.882353v512h481.882353zM223.472941 63.247059000000036h320.451765a15.36 15.36 0 0 1 16.263529 16.263529v182.512941a202.390588 202.390588 0 0 1-12.950588 86.738824 162.334118 162.334118 0 0 0-19.275294 76.8v38.550588a15.058824 15.058824 0 0 1-15.962353 15.962353h-96.075294a15.36 15.36 0 0 1-16.26353-15.962353v-38.550588a169.562353 169.562353 0 0 0-15.962352-69.872941 163.237647 163.237647 0 0 0-15.962353 69.872941v38.550588a15.058824 15.058824 0 0 1-15.962353 15.962353h-96.376471a15.058824 15.058824 0 0 1-15.962353-15.962353v-38.550588a158.72 158.72 0 0 0-19.275294-76.8 206.908235 206.908235 0 0 1-12.649412-86.738824v-182.512941a15.36 15.36 0 0 1 15.962353-16.263529z m185.825883 269.552941a186.428235 186.428235 0 0 1 22.588235 92.762353v22.588235h64.150588v-22.588235a234.616471 234.616471 0 0 1 22.287059-92.762353 164.442353 164.442353 0 0 0 9.637647-70.776471v-166.550588h-128.301177v166.550588a171.971765 171.971765 0 0 0 9.637648 70.776471zM240.941176 262.02352900000005a171.971765 171.971765 0 0 0 9.637648 70.776471A189.138824 189.138824 0 0 1 271.058824 425.562353v22.588235h64.150588v-22.588235a229.797647 229.797647 0 0 1 22.588235-92.762353 164.442353 164.442353 0 0 0 9.637647-70.776471v-166.550588H240.941176z"  horiz-adv-x="1024" />

    
    <glyph glyph-name="czIcon-lOUT_ROOM_STATE_CODE" unicode="&#58939;" d="M761.675294 499.049412v120.470588a249.374118 249.374118 0 0 1-425.261176 172.875294 246.061176 246.061176 0 0 1-74.089412-174.682353v-118.663529a128.903529 128.903529 0 0 1-126.795294-128.602353v-338.522353A128.903529 128.903529 0 0 1 264.131765-97.88235299999997h495.73647a128.903529 128.903529 0 0 1 128.602353 128.903529V370.44705899999997a128.602353 128.602353 0 0 1-126.795294 128.602353zM326.776471 617.110588a185.223529 185.223529 0 0 0 370.447058 0v-120.470588h-370.447058z m497.242353-585.185882a63.849412 63.849412 0 0 0-63.849412-64.150588H264.131765a63.849412 63.849412 0 0 0-63.849412 64.150588V370.44705899999997a63.849412 63.849412 0 0 0 63.849412 64.150588h496.037647a63.849412 63.849412 0 0 0 63.849412-64.150588zM512 363.52a116.254118 116.254118 0 0 1-32.225882-227.689412v-90.352941a32.225882 32.225882 0 0 1 64.451764 0v90.352941A116.254118 116.254118 0 0 1 512 363.52z m0-167.755294a51.802353 51.802353 0 1 0 51.802353 51.501176A51.802353 51.802353 0 0 0 512 195.76470600000005z"  horiz-adv-x="1024" />

    
    </font>
</defs>
</svg>
